Tags
Language
Tags

Marcelo Zarvos - Fences (Music From The Motion Picture) (2017)

Posted By: SERTiL
Marcelo Zarvos - Fences (Music From The Motion Picture) (2017)

Marcelo Zarvos - Fences (Music From The Motion Picture)
EAC Rip | FLAC (tracks)+cue, log, m3u, artwork | 60:13 min | 394 MB
Label: Sony Classical - 88985396882 | Tracks: 17 | Rls.date: 2017
Soundtrack, Classical

Fences was originally a 1983 play by American playwright August Wilson. Set in the 1950s, it is the sixth in Wilson's ten-part "Pittsburgh Cycle". Like all of the "Pittsburgh" plays, Fences explores the evolving African-American experience and examines race relations, among other themes. The play won the 1987 Pulitzer Prize for Drama and the 1987 Tony Award for Best Play.

Washington directs Wilson’s own screen adaptation, about a retired baseball player named Troy Maxson (Washington), now working as a Pittsburgh garbage man, who’s regretful about how his life turned out. Davis plays Troy’s wife, Rose.

Previous attempts to adapt August Wilson's Fences for the screen have been fruitless, partly due to Wilson's insistence that the film be directed by an African-American. In a 2013 interview with Empire, Denzel Washington expressed his intention to star in and direct an adaptation of Fences, reprising his role from the 2010 Broadway revival of the play produced by Scott Rudin.

On January 28, 2016, it was reported that Rudin, Washington and Todd Black would produce a film adaptation of the play, directed by Washington and starring Washington and Viola Davis, reprising their roles from the 2010 revival that garnered both actors Tony Awards. Playwright and screenwriter Tony Kushner came aboard to build on a draft written by Wilson before his death in 2005. However, Wilson will be the only credited screenwriter for the film.

Marcelo Zarvos - Fences (Music From The Motion Picture) (2017)


TRACKLIST
01. Gabriel's Trumpet 03:17
02. Cory's Theme 01:34
03. Alone at the Bar 01:39
04. Dinah Washington / You Don't Know What Love Is 04:03
05. You Got The Devil In You 03:43
06. Reverend James Cleveland / Peace Be Still 06:06
07. A Womanless Man 04:28
08. Fences 03:10
09. Troy's Story 03:33
10. Reverend James Cleveland / I Will Wear a Crown 05:43
11. Rose's Theme 02:29
12. They Could Do Nothing for Her 03:32
13. Confession 03:29
14. City Hall 01:07
15. A Dog Named Blue 02:02
16. Little Jimmy Scott / Day By Day 04:48
17. God's Closet 05:30

Exact Audio Copy V1.0 beta 4 from 7. December 2014

EAC extraction logfile from 11. June 2017, 17:42

Marcelo Zarvos / Fences (Music From The Motion Picture)

Used drive : ASUS SDR-08B1-U A Adapter: 1 ID: 0

Read mode : Secure
Utilize accurate stream : Yes
Defeat audio cache : Yes
Make use of C2 pointers : No

Read offset correction : 6
Overread into Lead-In and Lead-Out : No
Fill up missing offset samples with silence : Yes
Delete leading and trailing silent blocks : No
Null samples used in CRC calculations : Yes
Used interface : Native Win32 interface for Win NT & 2000
Gap handling : Appended to previous track

Used output format : User Defined Encoder
Selected bitrate : 1024 kBit/s
Quality : High
Add ID3 tag : No
Command line compressor : D:\Program Files\Exact Audio Copy\FLAC\FLAC.EXE
Additional command line options : -6 -V -T "ARTIST=%artist%" -T "TITLE=%title%" -T "ALBUM=%albumtitle%" -T "DATE=%year%" -T "TRACKNUMBER=%tracknr%" -T "GENRE=%genre%" -T "COMMENT=%comment%" -T "BAND=%albuminterpret%" -T "ALBUMARTIST=%albuminterpret%" -T "COMPOSER=%composer%" %haslyrics%–tag-from-file=LYRICS="%lyricsfile%"%haslyrics% -T "DISCNUMBER=%cdnumber%" -T "TOTALDISCS=%totalcds%" -T "TOTALTRACKS=%numtracks%" %hascover%–picture="%coverfile%"%hascover% %source% -o %dest%


TOC of the extracted CD

Track | Start | Length | Start sector | End sector
––––––––––––––––––––––––––––-
1 | 0:00.00 | 3:17.59 | 0 | 14833
2 | 3:17.59 | 1:34.68 | 14834 | 21951
3 | 4:52.52 | 1:39.41 | 21952 | 29417
4 | 6:32.18 | 4:03.27 | 29418 | 47669
5 | 10:35.45 | 3:43.53 | 47670 | 64447
6 | 14:19.23 | 6:06.49 | 64448 | 91946
7 | 20:25.72 | 4:28.07 | 91947 | 112053
8 | 24:54.04 | 3:10.03 | 112054 | 126306
9 | 28:04.07 | 3:33.15 | 126307 | 142296
10 | 31:37.22 | 5:43.51 | 142297 | 168072
11 | 37:20.73 | 2:29.39 | 168073 | 179286
12 | 39:50.37 | 3:32.71 | 179287 | 195257
13 | 43:23.33 | 3:29.24 | 195258 | 210956
14 | 46:52.57 | 1:07.39 | 210957 | 216020
15 | 48:00.21 | 2:02.62 | 216021 | 225232
16 | 50:03.08 | 4:48.61 | 225233 | 246893
17 | 54:51.69 | 5:30.55 | 246894 | 271698


Track 1

Filename E:\barca008\Marcelo Zarvos - Fences (Music From The Motion Picture)\01 - Gabriel's Trumpet.wav

Pre-gap length 0:00:02.00

Peak level 94.4 %
Extraction speed 1.1 X
Track quality 100.0 %
Test CRC DD8796FF
Copy CRC DD8796FF
Track not present in AccurateRip database
Copy OK

Track 2

Filename E:\barca008\Marcelo Zarvos - Fences (Music From The Motion Picture)\02 - Cory's Theme.wav

Pre-gap length 0:00:01.50

Peak level 92.2 %
Extraction speed 0.8 X
Track quality 99.8 %
Test CRC 088FBF9E
Copy CRC 088FBF9E
Track not present in AccurateRip database
Copy OK

Track 3

Filename E:\barca008\Marcelo Zarvos - Fences (Music From The Motion Picture)\03 - Alone at the Bar.wav

Pre-gap length 0:00:01.50

Peak level 35.5 %
Extraction speed 1.1 X
Track quality 100.0 %
Test CRC 18AE2622
Copy CRC 18AE2622
Track not present in AccurateRip database
Copy OK

Track 4

Filename E:\barca008\Marcelo Zarvos - Fences (Music From The Motion Picture)\04 - You Don't Know What Love Is.wav

Pre-gap length 0:00:01.50

Peak level 74.4 %
Extraction speed 1.2 X
Track quality 99.9 %
Test CRC 3439B2FD
Copy CRC 3439B2FD
Track not present in AccurateRip database
Copy OK

Track 5

Filename E:\barca008\Marcelo Zarvos - Fences (Music From The Motion Picture)\05 - You Got The Devil In You.wav

Pre-gap length 0:00:01.50

Peak level 70.2 %
Extraction speed 1.4 X
Track quality 100.0 %
Test CRC 8B811A07
Copy CRC 8B811A07
Track not present in AccurateRip database
Copy OK

Track 6

Filename E:\barca008\Marcelo Zarvos - Fences (Music From The Motion Picture)\06 - Peace Be Still.wav

Pre-gap length 0:00:01.50

Peak level 89.1 %
Extraction speed 1.6 X
Track quality 100.0 %
Test CRC A8650E44
Copy CRC A8650E44
Track not present in AccurateRip database
Copy OK

Track 7

Filename E:\barca008\Marcelo Zarvos - Fences (Music From The Motion Picture)\07 - A Womanless Man.wav

Pre-gap length 0:00:02.50

Peak level 53.6 %
Extraction speed 1.7 X
Track quality 100.0 %
Test CRC 1C88F14C
Copy CRC 1C88F14C
Track not present in AccurateRip database
Copy OK

Track 8

Filename E:\barca008\Marcelo Zarvos - Fences (Music From The Motion Picture)\08 - Fences.wav

Pre-gap length 0:00:02.50

Peak level 64.9 %
Extraction speed 1.7 X
Track quality 100.0 %
Test CRC F61D1289
Copy CRC F61D1289
Track not present in AccurateRip database
Copy OK

Track 9

Filename E:\barca008\Marcelo Zarvos - Fences (Music From The Motion Picture)\09 - Troy's Story.wav

Pre-gap length 0:00:01.50

Peak level 46.7 %
Extraction speed 1.8 X
Track quality 100.0 %
Test CRC 6C5D1EAE
Copy CRC 6C5D1EAE
Track not present in AccurateRip database
Copy OK

Track 10

Filename E:\barca008\Marcelo Zarvos - Fences (Music From The Motion Picture)\10 - I Will Wear a Crown.wav

Pre-gap length 0:00:02.50

Peak level 78.8 %
Extraction speed 2.0 X
Track quality 100.0 %
Test CRC 3B6F0722
Copy CRC 3B6F0722
Track not present in AccurateRip database
Copy OK

Track 11

Filename E:\barca008\Marcelo Zarvos - Fences (Music From The Motion Picture)\11 - Rose's Theme.wav

Pre-gap length 0:00:01.50

Peak level 71.9 %
Extraction speed 1.9 X
Track quality 100.0 %
Test CRC E7A33E79
Copy CRC E7A33E79
Track not present in AccurateRip database
Copy OK

Track 12

Filename E:\barca008\Marcelo Zarvos - Fences (Music From The Motion Picture)\12 - They Could Do Nothing for Her.wav

Pre-gap length 0:00:01.50

Peak level 61.0 %
Extraction speed 2.0 X
Track quality 100.0 %
Test CRC DEEEB4A9
Copy CRC DEEEB4A9
Track not present in AccurateRip database
Copy OK

Track 13

Filename E:\barca008\Marcelo Zarvos - Fences (Music From The Motion Picture)\13 - Confession.wav

Pre-gap length 0:00:01.50

Peak level 48.5 %
Extraction speed 2.1 X
Track quality 100.0 %
Test CRC 1DC8259C
Copy CRC 1DC8259C
Track not present in AccurateRip database
Copy OK

Track 14

Filename E:\barca008\Marcelo Zarvos - Fences (Music From The Motion Picture)\14 - City Hall.wav

Pre-gap length 0:00:01.50

Peak level 67.3 %
Extraction speed 1.6 X
Track quality 100.0 %
Test CRC C52FDF27
Copy CRC C52FDF27
Track not present in AccurateRip database
Copy OK

Track 15

Filename E:\barca008\Marcelo Zarvos - Fences (Music From The Motion Picture)\15 - A Dog Named Blue.wav

Pre-gap length 0:00:01.50

Peak level 36.2 %
Extraction speed 1.6 X
Track quality 99.9 %
Test CRC D2763CC9
Copy CRC D2763CC9
Track not present in AccurateRip database
Copy OK

Track 16

Filename E:\barca008\Marcelo Zarvos - Fences (Music From The Motion Picture)\16 - Day By Day.wav

Pre-gap length 0:00:01.50

Peak level 77.4 %
Extraction speed 2.0 X
Track quality 99.9 %
Test CRC FB9B8877
Copy CRC FB9B8877
Track not present in AccurateRip database
Copy OK

Track 17

Filename E:\barca008\Marcelo Zarvos - Fences (Music From The Motion Picture)\17 - God's Closet.wav

Pre-gap length 0:00:02.50

Peak level 75.9 %
Extraction speed 2.4 X
Track quality 100.0 %
Test CRC 1D930CBF
Copy CRC 1D930CBF
Track not present in AccurateRip database
Copy OK


None of the tracks are present in the AccurateRip database

No errors occurred

End of status report

–– CUETools DB Plugin V2.1.4

[CTDB TOCID: E9zslzIN0hTi3dZDhAzBFyb0um0-] found
Submit result: E9zslzIN0hTi3dZDhAzBFyb0um0- has been confirmed
Track | CTDB Status
1 | (2/2) Accurately ripped
2 | (2/2) Accurately ripped
3 | (2/2) Accurately ripped
4 | (2/2) Accurately ripped
5 | (2/2) Accurately ripped
6 | (2/2) Accurately ripped
7 | (2/2) Accurately ripped
8 | (2/2) Accurately ripped
9 | (2/2) Accurately ripped
10 | (2/2) Accurately ripped
11 | (2/2) Accurately ripped
12 | (2/2) Accurately ripped
13 | (2/2) Accurately ripped
14 | (2/2) Accurately ripped
15 | (2/2) Accurately ripped
16 | (2/2) Accurately ripped
17 | (2/2) Accurately ripped


==== Log checksum 86C13C2B1EFF31812547A66A630EC4A56E6F9FD1712F566AC2A112F5CEEEEBCB ====


Marcelo Zarvos - Fences (Music From The Motion Picture) (2017)


Thanks to the Original customer.