Subcategories

Fickle Pickle - Sinful Skinful (1970) [Air Mail Archive AIRAC-1199, Japan]

Posted By: v3122
Fickle Pickle - Sinful Skinful (1970) [Air Mail Archive AIRAC-1199, Japan]

Fickle Pickle - Sinful Skinful (1970)
EAC | Flac(Image) + Cue + Log & MP3 CBR 320Kbps
2006 | Air Mail Archive, AIRAC-119 | ~ 199 or 90 Mb | Scans(jpg) -> 37 Mb
Classic Rock, Psychedelic Rock

Fickle Pickle was an early- '70s band that was part of the Morgan Studios orbit, along with such bands as Orange Bicycle and the Smoke. Indeed, much of Fickle Pickle's lineup was filled out by ex-members of both of those bands, including Geoff Gill, Cliff Wade (a member of the short-lived early- '70s version of the Smoke), and Will Malone, plus ex-Jude member Steve Howden, with Denny Beckerman occasionally augmenting their lineup. They recorded a small number of singles in the early 1970s, including a cover of Don McLean's "American Pie," and enjoyed a hit in the Netherlands with their version of "Maybe I'm Amazed."

by Bruce Eder, allmusic
Fickle Pickle - Sinful Skinful (1970):

Fickle Pickle - Sinful Skinful (1970) [Air Mail Archive AIRAC-1199, Japan]

Tracklist:

01. California Calling 2:18
02. Sinful Skinful 3:16
03. Sandy 3:22
04. Doctor Octopus 3:24
05. Saturday 3:09
06. Only For The Summer 3:28
07. Let Me Tell You 2:22
08. Down Smokey Lane 4:30
09. Blown Away 2:49
10. Sunshine Pie 2:31
11. Barcelona 2:54
12. Out Time Is Thru 4:13

Musicians:

Drums, Vocals – Geoff Gill
Lead Guitar, Bass Guitar, Piano, Organ, Drums, Vocals – Gliff Wade
Lead Guitar, Rhythm Guitar, Bass Guitar, Vocals – Steve Howden
Piano, Organ, Vocals – Wil Malone


Exact Audio Copy V1.1 from 23. June 2015

Отчёт EAC об извлечении, выполненном 24. июля 2017, 23:07

Fickle Pickle / Sinful Skinful

Дисковод: ASUS DRW-24B3ST Adapter: 0 ID: 0

Режим чтения : Достоверность
Использование точного потока : Да
Отключение кэша аудио : Да
Использование указателей C2 : Нет

Коррекция смещения при чтении : 6
Способность читать области Lead-in и Lead-out : Нет
Заполнение пропущенных сэмплов тишиной : Да
Удаление блоков с тишиной в начале и конце : Нет
При вычислениях CRC использовались нулевые сэмплы : Да
Интерфейс : Установленный внешний ASPI-интерфейс

Выходной формат : Пользовательский кодировщик
Выбранный битрейт : 1024 kBit/s
Качество : Высокий
Добавление ID3-тега : Нет
Утилита сжатия : C:\Program Files (x86)\Exact Audio Copy\Flac\flac.exe
Дополнительные параметры : -V -8 -T "Date=%year%" -T "Genre=%genre%" %source%


TOC извлечённого CD

Трек | Старт | Длительность | Начальный сектор | Конечный сектор
––––––––––––––––––––––––––––––––––-
1 | 0:00.00 | 2:18.08 | 0 | 10357
2 | 2:18.08 | 3:16.29 | 10358 | 25086
3 | 5:34.37 | 3:21.68 | 25087 | 40229
4 | 8:56.30 | 3:23.52 | 40230 | 55506
5 | 12:20.07 | 3:09.30 | 55507 | 69711
6 | 15:29.37 | 3:27.43 | 69712 | 85279
7 | 18:57.05 | 2:22.32 | 85280 | 95961
8 | 21:19.37 | 4:30.03 | 95962 | 116214
9 | 25:49.40 | 2:48.63 | 116215 | 128877
10 | 28:38.28 | 2:31.08 | 128878 | 140210
11 | 31:09.36 | 2:54.29 | 140211 | 153289
12 | 34:03.65 | 4:12.25 | 153290 | 172214


Характеристики диапазона извлечения и сообщения об ошибках

Выбранный диапазон

Имя файла E:\Torrents\Fickle Pickle - 1970 - Sinful Skinful\Fickle Pickle - Sinful Skinful.wav

Пиковый уровень 100.0 %
Скорость извлечения 7.6 X
Качество диапазона 100.0 %
CRC теста 60497D3C
CRC копии 60497D3C
Копирование… OK

Ошибок не произошло


AccurateRip: сводка

Трек 1 : извлечено точно (доверие 1) [F8E5FA8E] (AR v1)
Трек 2 : извлечено точно (доверие 1) [BA32D740] (AR v1)
Трек 3 : извлечено точно (доверие 1) [16FE6C31] (AR v1)
Трек 4 : извлечено точно (доверие 1) [ABE7BC84] (AR v1)
Трек 5 : извлечено точно (доверие 1) [B65D1DD6] (AR v1)
Трек 6 : извлечено точно (доверие 1) [C801AA6D] (AR v1)
Трек 7 : извлечено точно (доверие 1) [8DF4DD9F] (AR v1)
Трек 8 : извлечено точно (доверие 1) [466CA34E] (AR v1)
Трек 9 : извлечено точно (доверие 1) [9A048C1F] (AR v1)
Трек 10 : извлечено точно (доверие 1) [0F96EEC7] (AR v1)
Трек 11 : извлечено точно (доверие 1) [1730EB55] (AR v1)
Трек 12 : извлечено точно (доверие 1) [B2D7A9E5] (AR v1)

Все треки извлечены точно

Конец отчёта

==== Контрольная сумма отчёта 143453616E5306FC7F70F59E49B1086FF3810AED77697BC287ECE6A00946BA72 ====

foobar2000 1.2.9 / Dynamic Range Meter 1.1.1
log date: 2017-07-25 08:38:15

––––––––––––––––––––––––––––––––––––––––
Analyzed: Fickle Pickle / Sinful Skinful
––––––––––––––––––––––––––––––––––––––––

DR Peak RMS Duration Track
––––––––––––––––––––––––––––––––––––––––
DR9 -0.30 dB -11.06 dB 2:18 01-California Calling
DR7 -0.30 dB -9.39 dB 3:16 02-Sinful Skinful
DR9 -0.65 dB -13.23 dB 3:22 03-Sandy
DR7 -0.30 dB -9.23 dB 3:24 04-Doctor Octopus
DR9 -0.30 dB -10.69 dB 3:09 05-Saturday
DR10 -0.30 dB -12.73 dB 3:28 06-Only For The Summer
DR7 -2.30 dB -10.67 dB 2:22 07-Let Me Tell You
DR7 -1.30 dB -11.32 dB 4:30 08-Down Smokey Lane
DR8 -0.50 dB -13.41 dB 2:49 09-Blown Away
DR8 -0.30 dB -9.68 dB 2:31 10-Sunshine Pie
DR10 -0.46 dB -13.56 dB 2:54 11-Barcelona
DR8 0.00 dB -10.38 dB 4:12 12-Out Time Is True
––––––––––––––––––––––––––––––––––––––––

Number of tracks: 12
Official DR value: DR8

Samplerate: 44100 Hz
Channels: 2
Bits per sample: 16
Bitrate: 705 kbps
Codec: FLAC

[CUETools log; Date: 25.07.2017 8:28:28; Version: 2.1.4]
[CTDB TOCID: KApznnA.EQiSDbjTkA1hJ6_lZhY-] disk not present in database.
[AccurateRip ID: 0010ad51-009cbfa0-8908f80c] found.
Track [ CRC | V2 ] Status
01 [f8e5fa8e|6b90ea55] (1+0/1) Accurately ripped
02 [ba32d740|374fc031] (1+0/1) Accurately ripped
03 [16fe6c31|7e0d3dc8] (1+0/1) Accurately ripped
04 [abe7bc84|65e0745f] (1+0/1) Accurately ripped
05 [b65d1dd6|b0e4481f] (1+0/1) Accurately ripped
06 [c801aa6d|07cd6754] (1+0/1) Accurately ripped
07 [8df4dd9f|cb6731a5] (1+0/1) Accurately ripped
08 [466ca34e|00009891] (1+0/1) Accurately ripped
09 [9a048c1f|aea6804f] (1+0/1) Accurately ripped
10 [0f96eec7|f0df5b72] (1+0/1) Accurately ripped
11 [1730eb55|7247ed88] (1+0/1) Accurately ripped
12 [b2d7a9e5|63094a9b] (1+0/1) Accurately ripped

Track Peak [ CRC32 ] [W/O NULL] [ LOG ]
– 100,0 [60497D3C] [7816A5B5] CRC32
01 96,6 [8CC64FE1] [E885FF29]
02 96,6 [9CE2BA3E] [5EC59CA9]
03 92,8 [88FB1924] [7DB8B4CE]
04 96,6 [9AB1D1E1] [AAACB9F9]
05 96,6 [DB5A2C7F] [E8DBE4EE]
06 96,6 [4FAFB274] [03DFFA59]
07 76,7 [1C3A3C1F] [E6666482]
08 86,1 [5E81B618] [A5045BCE]
09 94,4 [33C43BF8] [DD740A2E]
10 96,6 [C60D9042] [08FCB2E4]
11 94,8 [E7BF9FCD] [810D291B]
12 100,0 [C72FD07B] [C4C3706C]

Fickle Pickle - Sinful Skinful (1970) [Air Mail Archive AIRAC-1199, Japan]

All thanks go to Копысов

Download Fickle Pickle - Sinful Skinful (1970):