Tags
Language
Tags

Filippo Mineccia, The New Baroque Times - Orlando: amore. gelosia. follia. (2020)

Posted By:
Filippo Mineccia, The New Baroque Times - Orlando: amore. gelosia. follia. (2020)

Filippo Mineccia, The New Baroque Times - Orlando: amore. gelosia. follia. (2020)
EAC | FLAC | Image (Cue & Log) ~ 327 Mb | Total time: 70:01 | Scans included
Classical | Label: Glossa | # GCD 923523 | Recorded: 2019

En 1516 Ludovico Ariosto publicó su poderosa epopeya Orlando furioso, una secuencia de aventuras heroicas entrelazadas. La historia del caballero Orlando, enloquecido por un amor decepcionado por la princesa Angélica, sirve a toda la gama de emociones y rápidamente alcanzó un gran éxito en toda Europa. Se crearon decenas de óperas en torno a Orlando y otros personajes de la epopeya de Ariosto. El contratenor Filippo Mineccia ha reunido un variado programa de arias de óperas de Steffani, Porpora, Vivaldi, Handel, Mele, Wagenseil y Millico en torno a la figura de "Roland el Furioso", en el que despliega brillantemente todas las facetas creativas de su voz.

Performer:
Filippo Mineccia, countertenor
The New Baroque Times

Track List:
Agostino Steffani (1654 - 1728)
Orlando generoso (Excerpts)
01. Sinfonia
02. Orlando generoso (Excerpts): Non ha'l mar calma sincera
03. Orlando generoso (Excerpts): Fa che cessi in questo petto
Nicola Porpora (1686 - 1768)
L'Angelica (Excerpts):
04. Ombre amene
05. Ove son? Chi mi guida? - Da me chè volete? - Ma qual astro benigno - Aurette leggiere - Da me chè volete?
Antonio Vivaldi (1678 - 1741)
Orlando furioso, RV 728 (Excerpts)
06. Sol da te, mio dolce amore
07. Nel profondo cieco mondo
George Frideric Handel (1685 - 1759)
Ariodante, HWV 33 (Excerpts)
08. Ouverture
09. Spero per voi
10. Dover, giustizia, amor
11. Orlando, HWV 31: Ah! stigie larve
Giovanni Battista Mele (1693 - 1752)
12. Angelica e Medoro: Non cerchi innamorarsi
Georg Christoph Wagenseil (1715 - 1777)
13. Ariodante: Ombra cara
Giuseppe Millico (1737 - 1802)
Angelica e Medoro (Excerpts)
14. Sinfonia
15. Oh, dell'anima mia
16. Giusti numi


Exact Audio Copy V1.3 from 2. September 2016

EAC extraction logfile from 30. September 2020, 10:07

Filippo Mineccia / Orlando - amore. gelosia. follia.

Used drive : hp DVD-RAM GH82N Adapter: 1 ID: 0

Read mode : Secure
Utilize accurate stream : Yes
Defeat audio cache : Yes
Make use of C2 pointers : No

Read offset correction : 667
Overread into Lead-In and Lead-Out : No
Fill up missing offset samples with silence : Yes
Delete leading and trailing silent blocks : No
Null samples used in CRC calculations : Yes
Used interface : Native Win32 interface for Win NT & 2000

Used output format : User Defined Encoder
Selected bitrate : 1024 kBit/s
Quality : High
Add ID3 tag : No
Command line compressor : C:\Program Files (x86)\Exact Audio Copy\FLAC\FLAC.EXE
Additional command line options : -6 -V -T "ARTIST=%artist%" -T "TITLE=%title%" -T "ALBUM=%albumtitle%" -T "DATE=%year%" -T "TRACKNUMBER=%tracknr%" -T "GENRE=%genre%" -T "COMMENT=%comment%" -T "BAND=%albuminterpret%" -T "ALBUMARTIST=%albuminterpret%" -T "COMPOSER=%composer%" %haslyrics%–tag-from-file=LYRICS="%lyricsfile%"%haslyrics% -T "DISCNUMBER=%cdnumber%" -T "TOTALDISCS=%totalcds%" -T "TOTALTRACKS=%numtracks%" %hascover%–picture="%coverfile%"%hascover% %source% -o %dest%


TOC of the extracted CD

Track | Start | Length | Start sector | End sector
––––––––––––––––––––––––––––-
1 | 0:00.00 | 2:27.37 | 0 | 11061
2 | 2:27.37 | 1:59.57 | 11062 | 20043
3 | 4:27.19 | 1:10.35 | 20044 | 25328
4 | 5:37.54 | 4:47.62 | 25329 | 46915
5 | 10:25.41 | 7:11.34 | 46916 | 79274
6 | 17:37.00 | 9:08.56 | 79275 | 120430
7 | 26:45.56 | 4:23.03 | 120431 | 140158
8 | 31:08.59 | 3:02.19 | 140159 | 153827
9 | 34:11.03 | 4:02.14 | 153828 | 171991
10 | 38:13.17 | 3:15.36 | 171992 | 186652
11 | 41:28.53 | 7:34.54 | 186653 | 220756
12 | 49:03.32 | 4:59.51 | 220757 | 243232
13 | 54:03.08 | 3:23.62 | 243233 | 258519
14 | 57:26.70 | 3:46.17 | 258520 | 275486
15 | 61:13.12 | 4:56.52 | 275487 | 297738
16 | 66:09.64 | 3:51.21 | 297739 | 315084


Range status and errors

Selected range

Filename C:\rips\Filippo Mineccia - Orlando - amore. gelosia. follia..wav

Peak level 97.9 %
Extraction speed 3.3 X
Range quality 99.9 %
Test CRC 8F267DC2
Copy CRC 8F267DC2
Copy OK

No errors occurred


AccurateRip summary

Track 1 not present in database
Track 2 not present in database
Track 3 not present in database
Track 4 not present in database
Track 5 not present in database
Track 6 not present in database
Track 7 not present in database
Track 8 not present in database
Track 9 not present in database
Track 10 not present in database
Track 11 not present in database
Track 12 not present in database
Track 13 not present in database
Track 14 not present in database
Track 15 not present in database
Track 16 not present in database

None of the tracks are present in the AccurateRip database

End of status report

–– CUETools DB Plugin V2.1.6

[CTDB TOCID: j1YIiP8ac5aLlV3BTAm49r9W.9w-] disk not present in database
Submit result: j1YIiP8ac5aLlV3BTAm49r9W.9w- has been uploaded


==== Log checksum E8082FE4E875888DB51DD34C7CAAC79E3B3963A04862C628D2AEA753161ABC08 ====

Filippo Mineccia, The New Baroque Times - Orlando: amore. gelosia. follia. (2020)

Thanks to the original releaser