Subcategories
Tags
Language
Tags

Fleetwood Mac - Heroes Are Hard To Find (1974) [Vinyl Rip 16/44 & mp3-320 + DVD] Re-up

Posted By: v3122
Fleetwood Mac - Heroes Are Hard To Find (1974) [Vinyl Rip 16/44 & mp3-320 + DVD] Re-up

Fleetwood Mac - Heroes Are Hard To Find (1974)
Vinyl Rip 16/44 | Flac(Image + Cue) > 238 Mb
MP3 CBR 320Kbps > 94 Mb | Artwork(jpg) > 1.48 Mb
DVD-5: NTSC 4:3 (720x480) VBR | LPCM, 2 ch, 24 bit, 96 kHz > 1.39 Gb
Reprise Records | Blues Rock, Pop Rock

Although this was Bob Welch's last album with the band he had worked with since 1971, it sounds like he's at his peak. Pared down to a foursome for the first and (as of 2002) only time since the addition of Danny Kirwan, both Welch and Christine McVie contribute some of their finest songs. Bolstered by sympathetic self-production and imaginative, often aggressive arrangements that include brassy horns on the title track (a blatant but failed attempt at a hit single), the album is one of their most cohesive yet diverse. Welch continues his fascination with UFOs in a sort of follow-up to Mystery to Me's "Hypnotized" called "Bermuda Triangle" and even heads into a spacy Hendrix "Third Stone From the Sun" groove on "Coming Home." Christine McVie is in wonderful voice on her own ballads like "Prove Your Love" but outdoes herself on the magnificent "Come a Little Bit Closer," a stunning track whose grandeur is heightened by strings and McVie's majestic piano. It's a hidden classic and pedal steel by the Flying Burrito Brothers' Sneaky Pete Kleinow is an unexpected and perfect addition to the album's most fully realized tune. Welch's folk-pop "She's Changing Me" is one of his most upbeat, memorable melodies, offset by the rocker "Silver Heels" and his closing "Safe Harbor," a knowing nod back to Peter Green's atmospheric work on "Albatross" and his contributions to Then Play On. McVie's haunting rocker "Bad Loser" is reinforced by the propulsive rhythm section of Mick Fleetwood and John McVie, both adding tense bite to even the most tender of ballads. Welch left soon after the album's release, and the group went on to bigger and better things, but Heroes is a minor gem that retains its effortless pop charms and contains some buried jewels in the extensive Fleetwood Mac catalog.

by Hal Horowitz, allmusic
Fleetwood Mac - Heroes Are Hard To Find (1974):

Fleetwood Mac - Heroes Are Hard To Find (1974) [Vinyl Rip 16/44 & mp3-320 + DVD] Re-up

Tracklist:

Side A
A1 Heroes Are Hard To Find
A2 Coming Home
A3 Angel
A4 Bermuda Triangle
A5 Come A Little Closer

Side B
B1 She's Changing Me
B2 Bad Loser
B3 Silver Heels
B4 Prove Your Love
B5 Born Enchanter
B6 Safe Harbour

foobar2000 1.4 / Dynamic Range Meter 1.1.1
log date: 2018-09-27 19:03:26

––––––––––––––––––––––––––––––––––––––––
Analyzed: Fleetwood Mac / Heroes Are Hard To Find
––––––––––––––––––––––––––––––––––––––––

DR Peak RMS Duration Track
––––––––––––––––––––––––––––––––––––––––
DR13 -0.46 dB -16.44 dB 3:36 01-Heroes Are Hard To Find
DR12 -2.59 dB -17.95 dB 3:56 02-Coming Home
DR12 -3.47 dB -17.61 dB 3:55 03-Angel
DR14 -0.49 dB -18.77 dB 4:09 04-Bermuda Triangle
DR12 -2.61 dB -17.61 dB 4:48 05-Come A Little Closer
DR12 -2.18 dB -17.04 dB 2:59 06-She's Changing Me
DR11 -3.25 dB -17.80 dB 3:26 07-Bad Loser
DR12 -2.31 dB -17.41 dB 3:28 08-Silver Heels
DR12 -2.26 dB -16.96 dB 3:59 09-Prove Your Love
DR12 -3.39 dB -17.67 dB 2:55 10-Born Enchanter
DR13 -5.60 dB -21.23 dB 2:32 11-Safe Harbour
––––––––––––––––––––––––––––––––––––––––

Number of tracks: 11
Official DR value: DR12

Samplerate: 44100 Hz
Channels: 2
Bits per sample: 16
Bitrate: 813 kbps
Codec: FLAC
================================================================================



Title: Fleetwood Mac 1974 - Heroes Are Hard To Find - DVD
Size: 1.32 Gb ( 1 380 256,00 KBytes ) - DVD-5
Enabled regions: 1, 2, 3, 4, 5, 6, 7, 8

VTS_01 :
Play Length: 00:39:38
Video: NTSC 4:3 (720x480) VBR
Audio:
Not specified (LinearPCM, 2 ch)



Original ripper: Titura
Original format: 24/192
Vinyl Condition: NM
Cleaning:
Direct Drive Turntable: Kenwood KD 770D
Cartridge: AT 150 MLX
Amplifier: Creek OBH-8SE
ADC: E-MU 0404 USB
Postprocessing:

Downsampled to 24/96 & 16/44

Fleetwood Mac - Heroes Are Hard To Find (1974) [Vinyl Rip 16/44 & mp3-320 + DVD] Re-up

Fleetwood Mac - Heroes Are Hard To Find (1974) [Vinyl Rip 16/44 & mp3-320 + DVD] Re-up

Fleetwood Mac in my Blog

Download Fleetwood Mac - Heroes Are Hard To Find (1974):