Tags
Language
Tags

Flute Concertos & Sonatas: J. S. Bach, C.P.E. Bach, C. Stamitz, J. Stamitz, Gluck, Quantz & others [6CDs] (2012)

Posted By: ArlegZ
Flute Concertos & Sonatas: J. S. Bach, C.P.E. Bach, C. Stamitz, J. Stamitz, Gluck, Quantz & others [6CDs] (2012)

Flute Concertos & Sonatas: J. S. Bach, C.P.E. Bach, C. Stamitz, J. Stamitz, Gluck, Quantz & others [6CDs] (2012)
EAC | FLAC | Image (Cue & Log) ~ 1,83 Gb | Total time: 06:20:28 | Scans included
Classical | Label: Sony Classical | # 88725463922 | Recorded: 1976, 1992, 1993, 1996

As the predecessors of Sony Classical, CBS Masterworks had not a catalogue of ""authenticity-minded"" recordings (the pioneering efforts of Raymond Leppard and Jean-Claude Malgoire notwithstanding), Sony made a distinctive new start and engaged indubitably one of the most experienced producers in the field of early music, Wolf Erichson. If the successes secured by such musicians as Gustav Leonhardt, Nikolaus Harnoncourt and Frans Brüggen in the 1960s were the most visible signs to a wider audience of thorough-going change in the interpretation of music from medieval to baroque times, there was no doubt in assigning a part of the general success to the work of the production teams behind the recordings. Wolf Erichson was involved in producing recordings for many artists through his work for Das Alte Werk series. Success followed him since the early 1970s, when he founded the SEON production company. Later, Sony Classicals SEON line brought the pioneers of period intruments and vocal performances such as Frans Brüggen, Amer Bylsma, the Kuijkens, Gustav Leonhardt, and Konrad Ruhland on the international market at a budget price. Recordings made on SEON enjoyed both popular and critical acclaim. Later, producer Wolf Erichson, supervised Sony's VIVARTE label, which was a label devoted solely to producing historical music using modern recording technologies. Music critic Tom Manoff said these digital recordings of the VIVARTE series are among the best he has ever heard. The upcoming VIVARTE collectors boxed sets feature attractive repertoire selection out of the legendary catalogue of ancient music.

Contents:
CD 01: Stamitz, Richter, Haydn, Gluck - Flute Concertos
CD 02-03: C.P.E. Bach: Complete Flute Sonatas
CD 04: From the Court of Frederick the Great
CD 05-06: J.S. Bach - Complete Sonatas and Partita for Flute


CD 01: Stamitz, Richter, Haydn, Gluck - Flute Concertos
Carl Stamitz (1745-1801)
Concerto in G Major for Flute, Strings, 2 Oboes, 2 Horns and Basso
01. I. Allegro
02. II. Andante non troppo moderato
03. III. Rondo - Allegro
Franz Xaver Richter (1709-1789)
Concerto in E Minor for Flute, Strings and Basso Continuo
04. I. Allegro moderato
05. II. Andantino
06. III. Allegro, non troppo presto
Johann Stamitz (1717-1757)
Concerto in G Major for Flute, Strings, and Basso Continuo
07. I. Allegro
08. II. Adagio
09. III. Presto
Franz Joseph Haydn (1732-1809)
Leopold Hofmann (1738-1793)
Hofmann, L: Concerto for Flute, Strings, 2 Horns and Basso Continuo in D Major
10. I. Allegro moderato
11. II. Adagio
12. III. Allegro molto
Christoph Willibald Gluck (1714-87)
13. Orpheus and Eurydice, Wq. 30: Dance of the Blessed Spirits

Barthold Kuijken (transverse flute)
Tafelmusik
Jeanne Lamon (musical direction)

CD 02: C.P.E. Bach: Complete Flute Sonatas
Carl Philipp Emanuel Bach (1714-88)
Sonata in E-flat Major, H. 545 (BWV 1031)
01. I. Allegro moderato
02. II. Siciliana
03. III. Allegro
Sonata in G Major, H. 509 (Wq 86)
04. I. Andante
05. II. Allegretto
06. III. Allegro
Sonata in C Major, H. 515 (Wq 87)
07. I. Allegretto
08. II. Andantino
09. III. Allegro
Sonata in B-flat Major, H. 578 (Wq 161 No. 2)
10. I. Allegro
11. II. Adagio ma non troppo
12. III. Allegretto
Sonata in D Major, H. 505 (Wq 83)
13. I. Allegro un poco
14. II. Largo
15. III. Allegro

CD3: C.P.E. Bach: Complete Flute Sonatas
Sonata in G minor, H. 542.5 (BWV 1020)
01. I. Allegro
02. II. Adagio
03. III. Allegro
Sonata in B-flat Major, H. 543 (Wq 159 / 163)
04. I. Un poco Andante
05. II. Allegretto
06, III. Allegro
Sonata in C Major, H. 504 (Wq 73 / 149)
07. I. Allegro di molto
08. II. Andante
09. III. Allegretto
Sonata in G Major, H. 508 (Wq 85)
10. I. Allegretto
11. II. Andantino
12. III. Allegro
Sonata in E Major, H. 506 (Wq 84)
13. I. Allegretto
14. II. Adagio di molto
15. III. Allegro assai

Barthold Kuijken (transverse flute)
Bob van Asperen (harpsichord)

CD4: From the Court of Frederick the Great
Franz Benda (1709-1786)
Sonata in E Minor (1756)
01. I. Largo, ma un poco andante
02. II. Arioso, un poco allegro
03. III. Presto
Johann Gottlieb Graun (1703-1771)
Sonata in C Major
04. I. Largo
05. II. Allegro
06. III. Allegro
Johann Philipp Kirnberger (1721-1783)
Sonata in G Major (1767)
07. I. Adagio
08. II. Allegro
09. III. Allegro
Frederick II of Prussia (1712-1786)
Sonata in E minor
10. I. Grave
11. II. Allegro assai
12. III. Presto
Carl Heinrich Graun (1703-1759)
Graun, C H: Sonata in G Major
13. I. Largo
14. II. Pocco allegro
15. III. Allegretto
Johann Joachim Quantz (1679-1773)
Sonata in B flat Major
16. I. Cantabile
17. II. Allegretto
18. III. Vivace
Johann Gottfried Muthel (1728-88)
Sonata in D major
19. I. Adagio
20. II. Allegro, ma non troppo
21. III. Cantabile

Barthold Kuijken (transverse flute)
Wieland Kuijken (violoncello)
Bob van Asperen (harpsichord)

CD5: J.S. Bach - Complete Sonatas and Partita for Flute
Johann Sebastian Bach (1685-1750)
Flute Sonata No. 1 in B minor, BWV1030
01. I. Andante
02. II. Largo e dolce
03. III. Presto
Flute Sonata No. 6 in E major, BWV1035
04. I. Adagio ma non tanto
05. II. Allegro
06. III. Siciliano
IV. Allegro assai
Flute Sonata No. 3 in A major, BWV1032
07. I. Vivace
08. II. Largo e dolce
09. III. Allegro

Frans Brüggen, transverse flute
Gustav Leonhardt, harpsichord
Anner Bylsma, cello

CD6: J.S. Bach - Complete Sonatas and Partita for Flute
Flute Sonata No. 5 in E minor, BWV1034
01. I. Adagio ma non tanto
02. II. Allegro
03. III. Andante
04. IV. Allegro
Partita in A minor for solo flute, BWV1013
05. I. Allemande
06. II. Corrente
07. III. Sarabande
08. IV. Bourrée anglaise
Partita in A minor for solo flute, BWV1013
09. I. Allemande (in G Minor) for Viola
10. II. Allemande (in G Minor) for Harpsichord
11. III. Corrente (in G Minor) for Violoncello piccolo
12. IV. Sarabande (in C Minor) for Recorder
13. V. Bourrée anglaise (in G Minor) for Violin
14. Concerto in D Minor (Excerpt) - After the first movement of the Flute Sonata in B Minor BWV 1030 (Arranged by Frans Brüggen)

Frans Brüggen, transverse flute (1-8), recorder (9-13)
Gustav Leonhardt, harpsichord (1-4/10/14)
Anner Bylsma, cello (1-4/14), violoncello piccilo (11)
Lucy Van Dael, violin (11/14), viola (9)
Sigiswald Kuijken, violin (14)
Wieland Kuijken, bass viol I (14)
Adelheid Glatt, bass viol II (14)
Anthony Woodrow, violine (14)




Exact Audio Copy V1.3 from 2. September 2016

EAC extraction logfile from 2. November 2019, 15:42

Barthold Kuijken, Tafelmusik, Jeanne Lamon / Stamitz, Richter, Haydn, Gluck - Flute Concertos

Used drive : PIONEER DVD-RW DVR-218L Adapter: 1 ID: 0

Read mode : Secure
Utilize accurate stream : Yes
Defeat audio cache : Yes
Make use of C2 pointers : No

Read offset correction : 6
Overread into Lead-In and Lead-Out : No
Fill up missing offset samples with silence : Yes
Delete leading and trailing silent blocks : No
Null samples used in CRC calculations : Yes
Used interface : Native Win32 interface for Win NT & 2000

Used output format : User Defined Encoder
Selected bitrate : 128 kBit/s
Quality : High
Add ID3 tag : No
Command line compressor : C:\Program Files\Exact Audio Copy\FLAC\FLAC.EXE
Additional command line options : -V -8 -T "Date=%year%" -T "Genre=%genre%" %source%


TOC of the extracted CD

Track | Start | Length | Start sector | End sector
––––––––––––––––––––––––––––-
1 | 0:00.00 | 6:48.50 | 0 | 30649
2 | 6:48.50 | 4:17.15 | 30650 | 49939
3 | 11:05.65 | 5:19.35 | 49940 | 73899
4 | 16:25.25 | 7:34.30 | 73900 | 107979
5 | 23:59.55 | 8:12.02 | 107980 | 144881
6 | 32:11.57 | 4:14.43 | 144882 | 163974
7 | 36:26.25 | 4:45.00 | 163975 | 185349
8 | 41:11.25 | 4:55.50 | 185350 | 207524
9 | 46:07.00 | 3:39.25 | 207525 | 223974
10 | 49:46.25 | 6:30.25 | 223975 | 253249
11 | 56:16.50 | 7:54.45 | 253250 | 288844
12 | 64:11.20 | 5:11.05 | 288845 | 312174
13 | 69:22.25 | 7:35.50 | 312175 | 346349


Range status and errors

Selected range

Filename C:\ArlegZ\Stamitz, Richter, Haydn, Gluck - Flute Concertos.wav

Peak level 86.8 %
Extraction speed 2.2 X
Range quality 100.0 %
Test CRC EB890468
Copy CRC EB890468
Copy OK

No errors occurred


AccurateRip summary

Track 1 accurately ripped (confidence 6) [B8A4211E] (AR v2)
Track 2 accurately ripped (confidence 6) [2F24B13C] (AR v2)
Track 3 accurately ripped (confidence 6) [8402C6C9] (AR v2)
Track 4 accurately ripped (confidence 6) [CF15970B] (AR v2)
Track 5 accurately ripped (confidence 6) [E72864CA] (AR v2)
Track 6 accurately ripped (confidence 6) [B7B9B61C] (AR v2)
Track 7 accurately ripped (confidence 6) [E391AA17] (AR v2)
Track 8 accurately ripped (confidence 6) [CB605241] (AR v2)
Track 9 accurately ripped (confidence 6) [E2DF16EF] (AR v2)
Track 10 accurately ripped (confidence 6) [841DE03B] (AR v2)
Track 11 accurately ripped (confidence 6) [6E529C7E] (AR v2)
Track 12 accurately ripped (confidence 6) [36E65411] (AR v2)
Track 13 accurately ripped (confidence 6) [22260434] (AR v2)

All tracks accurately ripped

End of status report

==== Log checksum 2B86A9D599748AC357E55B3CC353E91F24D381FC2DD3AB13635CC6E19F015D1A ====


Exact Audio Copy V1.3 from 2. September 2016

EAC extraction logfile from 2. November 2019, 17:11

Barthold Kuijken, Bob van Asperen / C.P.E. Bach - Complete Flute Sonatas

Used drive : PIONEER DVD-RW DVR-218L Adapter: 1 ID: 0

Read mode : Secure
Utilize accurate stream : Yes
Defeat audio cache : Yes
Make use of C2 pointers : No

Read offset correction : 6
Overread into Lead-In and Lead-Out : No
Fill up missing offset samples with silence : Yes
Delete leading and trailing silent blocks : No
Null samples used in CRC calculations : Yes
Used interface : Native Win32 interface for Win NT & 2000

Used output format : User Defined Encoder
Selected bitrate : 128 kBit/s
Quality : High
Add ID3 tag : No
Command line compressor : C:\Program Files\Exact Audio Copy\FLAC\FLAC.EXE
Additional command line options : -V -8 -T "Date=%year%" -T "Genre=%genre%" %source%


TOC of the extracted CD

Track | Start | Length | Start sector | End sector
––––––––––––––––––––––––––––-
1 | 0:00.00 | 3:23.65 | 0 | 15289
2 | 3:23.65 | 2:19.72 | 15290 | 25786
3 | 5:43.62 | 4:13.63 | 25787 | 44824
4 | 9:57.50 | 2:48.12 | 44825 | 57436
5 | 12:45.62 | 5:46.13 | 57437 | 83399
6 | 18:32.00 | 4:43.50 | 83400 | 104674
7 | 23:15.50 | 5:23.12 | 104675 | 128911
8 | 28:38.62 | 3:09.03 | 128912 | 143089
9 | 31:47.65 | 4:44.10 | 143090 | 164399
10 | 36:32.00 | 8:07.50 | 164400 | 200974
11 | 44:39.50 | 5:04.70 | 200975 | 223844
12 | 49:44.45 | 9:38.30 | 223845 | 267224
13 | 59:23.00 | 4:13.12 | 267225 | 286211
14 | 63:36.12 | 5:57.18 | 286212 | 313004
15 | 69:33.30 | 5:24.45 | 313005 | 337349


Range status and errors

Selected range

Filename C:\ArlegZ\C.P.E. Bach - Complete Flute Sonatas.wav

Peak level 66.9 %
Extraction speed 2.1 X
Range quality 100.0 %
Test CRC 5817EBFB
Copy CRC 5817EBFB
Copy OK

No errors occurred


AccurateRip summary

Track 1 accurately ripped (confidence 7) [D56E1C2E] (AR v2)
Track 2 accurately ripped (confidence 8) [D151C265] (AR v2)
Track 3 accurately ripped (confidence 8) [B04AA870] (AR v2)
Track 4 accurately ripped (confidence 8) [A3EBE7DF] (AR v2)
Track 5 accurately ripped (confidence 8) [DFFE7E1C] (AR v2)
Track 6 accurately ripped (confidence 8) [54EE0916] (AR v2)
Track 7 accurately ripped (confidence 8) [96097C93] (AR v2)
Track 8 accurately ripped (confidence 8) [A96EEF71] (AR v2)
Track 9 accurately ripped (confidence 8) [0B727F3B] (AR v2)
Track 10 accurately ripped (confidence 8) [59D89AC6] (AR v2)
Track 11 accurately ripped (confidence 8) [B982C9A1] (AR v2)
Track 12 accurately ripped (confidence 8) [077A4439] (AR v2)
Track 13 accurately ripped (confidence 8) [DEED265F] (AR v2)
Track 14 accurately ripped (confidence 8) [273DABD2] (AR v2)
Track 15 accurately ripped (confidence 8) [755B9B6B] (AR v2)

All tracks accurately ripped

End of status report

==== Log checksum A8B9E73059766E7A8A61EF5D27F15744E66C5C438A7DFB7E4D1EF06A2AB68C0E ====


Exact Audio Copy V1.3 from 2. September 2016

EAC extraction logfile from 2. November 2019, 18:22

Barthold Kuijken, Bob van Asperen / C.P.E. Bach - Complete Flute Sonatas (II)

Used drive : PIONEER DVD-RW DVR-218L Adapter: 1 ID: 0

Read mode : Secure
Utilize accurate stream : Yes
Defeat audio cache : Yes
Make use of C2 pointers : No

Read offset correction : 6
Overread into Lead-In and Lead-Out : No
Fill up missing offset samples with silence : Yes
Delete leading and trailing silent blocks : No
Null samples used in CRC calculations : Yes
Used interface : Native Win32 interface for Win NT & 2000

Used output format : User Defined Encoder
Selected bitrate : 128 kBit/s
Quality : High
Add ID3 tag : No
Command line compressor : C:\Program Files\Exact Audio Copy\FLAC\FLAC.EXE
Additional command line options : -V -8 -T "Date=%year%" -T "Genre=%genre%" %source%


TOC of the extracted CD

Track | Start | Length | Start sector | End sector
––––––––––––––––––––––––––––-
1 | 0:00.00 | 3:45.20 | 0 | 16894
2 | 3:45.20 | 2:56.72 | 16895 | 30166
3 | 6:42.17 | 4:48.33 | 30167 | 51799
4 | 11:30.50 | 3:24.10 | 51800 | 67109
5 | 14:54.60 | 5:05.65 | 67110 | 90049
6 | 20:00.50 | 2:23.00 | 90050 | 100774
7 | 22:23.50 | 3:02.37 | 100775 | 114461
8 | 25:26.12 | 5:25.48 | 114462 | 138884
9 | 30:51.60 | 6:55.57 | 138885 | 170066
10 | 37:47.42 | 6:15.45 | 170067 | 198236
11 | 44:03.12 | 3:16.45 | 198237 | 212981
12 | 47:19.57 | 4:17.60 | 212982 | 232316
13 | 51:37.42 | 5:09.25 | 232317 | 255516
14 | 56:46.67 | 3:32.65 | 255517 | 271481
15 | 60:19.57 | 4:43.18 | 271482 | 292724


Range status and errors

Selected range

Filename C:\ArlegZ\C.P.E. Bach - Complete Flute Sonatas (II).wav

Peak level 67.7 %
Extraction speed 2.0 X
Range quality 99.9 %
Test CRC C5613463
Copy CRC C5613463
Copy OK

No errors occurred


AccurateRip summary

Track 1 accurately ripped (confidence 8) [53A6C682] (AR v2)
Track 2 accurately ripped (confidence 8) [1F65331B] (AR v2)
Track 3 accurately ripped (confidence 8) [7015959B] (AR v2)
Track 4 accurately ripped (confidence 8) [F39C1BCF] (AR v2)
Track 5 accurately ripped (confidence 8) [45850407] (AR v2)
Track 6 accurately ripped (confidence 8) [13CEE58C] (AR v2)
Track 7 accurately ripped (confidence 8) [7D1A4DA2] (AR v2)
Track 8 accurately ripped (confidence 8) [F5096DC8] (AR v2)
Track 9 accurately ripped (confidence 8) [6E33227E] (AR v2)
Track 10 accurately ripped (confidence 8) [B738D72E] (AR v2)
Track 11 accurately ripped (confidence 8) [5C9588E9] (AR v2)
Track 12 accurately ripped (confidence 8) [71521FA5] (AR v2)
Track 13 accurately ripped (confidence 8) [BDBF4A5B] (AR v2)
Track 14 accurately ripped (confidence 8) [55FDDAA4] (AR v2)
Track 15 accurately ripped (confidence 8) [CDD87039] (AR v2)

All tracks accurately ripped

End of status report

==== Log checksum 393D2662E29C0A83CFE1544D96264D5F150F11CEB7A233E6215F07580541BA5D ====


Exact Audio Copy V1.3 from 2. September 2016

EAC extraction logfile from 3. November 2019, 11:59

Barthold Kuijken, Wieland Kuijken, Bob van Asperen / From the Court of Frederick the Great

Used drive : PIONEER DVD-RW DVR-218L Adapter: 1 ID: 0

Read mode : Secure
Utilize accurate stream : Yes
Defeat audio cache : Yes
Make use of C2 pointers : No

Read offset correction : 6
Overread into Lead-In and Lead-Out : No
Fill up missing offset samples with silence : Yes
Delete leading and trailing silent blocks : No
Null samples used in CRC calculations : Yes
Used interface : Native Win32 interface for Win NT & 2000

Used output format : User Defined Encoder
Selected bitrate : 128 kBit/s
Quality : High
Add ID3 tag : No
Command line compressor : C:\Program Files\Exact Audio Copy\FLAC\FLAC.EXE
Additional command line options : -V -8 -T "Date=%year%" -T "Genre=%genre%" %source%


TOC of the extracted CD

Track | Start | Length | Start sector | End sector
––––––––––––––––––––––––––––-
1 | 0:00.00 | 2:48.12 | 0 | 12611
2 | 2:48.12 | 4:12.03 | 12612 | 31514
3 | 7:00.15 | 3:39.10 | 31515 | 47949
4 | 10:39.25 | 3:19.50 | 47950 | 62924
5 | 13:59.00 | 2:49.42 | 62925 | 75641
6 | 16:48.42 | 2:15.50 | 75642 | 85816
7 | 19:04.17 | 2:39.00 | 85817 | 97741
8 | 21:43.17 | 2:34.50 | 97742 | 109341
9 | 24:17.67 | 2:39.50 | 109342 | 121316
10 | 26:57.42 | 2:43.63 | 121317 | 133604
11 | 29:41.30 | 2:43.25 | 133605 | 145854
12 | 32:24.55 | 2:10.05 | 145855 | 155609
13 | 34:34.60 | 2:38.20 | 155610 | 167479
14 | 37:13.05 | 3:43.20 | 167480 | 184224
15 | 40:56.25 | 3:09.37 | 184225 | 198436
16 | 44:05.62 | 3:02.03 | 198437 | 212089
17 | 47:07.65 | 3:42.02 | 212090 | 228741
18 | 50:49.67 | 2:44.08 | 228742 | 241049
19 | 53:34.00 | 5:24.30 | 241050 | 265379
20 | 58:58.30 | 4:13.65 | 265380 | 284419
21 | 63:12.20 | 3:12.10 | 284420 | 298829


Range status and errors

Selected range

Filename C:\ArlegZ\From the Court of Frederick the Great.wav

Peak level 54.5 %
Extraction speed 2.1 X
Range quality 100.0 %
Test CRC 98E5541C
Copy CRC 98E5541C
Copy OK

No errors occurred


AccurateRip summary

Track 1 accurately ripped (confidence 7) [4970F60C] (AR v2)
Track 2 accurately ripped (confidence 7) [9FCA8899] (AR v2)
Track 3 accurately ripped (confidence 7) [3C5AAC7F] (AR v2)
Track 4 accurately ripped (confidence 7) [F1F26908] (AR v2)
Track 5 accurately ripped (confidence 7) [AB4E99D4] (AR v2)
Track 6 accurately ripped (confidence 7) [0EA4D986] (AR v2)
Track 7 accurately ripped (confidence 7) [9EF50AFD] (AR v2)
Track 8 accurately ripped (confidence 7) [838989D4] (AR v2)
Track 9 accurately ripped (confidence 7) [236CA712] (AR v2)
Track 10 accurately ripped (confidence 7) [7DFBF2A2] (AR v2)
Track 11 accurately ripped (confidence 7) [71D9CC06] (AR v2)
Track 12 accurately ripped (confidence 7) [A33754A9] (AR v2)
Track 13 accurately ripped (confidence 7) [ADEBC98F] (AR v2)
Track 14 accurately ripped (confidence 7) [A73D6B7E] (AR v2)
Track 15 accurately ripped (confidence 7) [C9333C2D] (AR v2)
Track 16 accurately ripped (confidence 7) [99BDF521] (AR v2)
Track 17 accurately ripped (confidence 7) [9EC4EF54] (AR v2)
Track 18 accurately ripped (confidence 7) [7C2A4F0D] (AR v2)
Track 19 accurately ripped (confidence 7) [5EB1DF6A] (AR v2)
Track 20 accurately ripped (confidence 7) [923263D3] (AR v2)
Track 21 accurately ripped (confidence 7) [CC670F3F] (AR v2)

All tracks accurately ripped

End of status report

==== Log checksum 97079D8DF1150BAE3C92106D50E17199E271E883EAA840E200B7C5841635CAE3 ====


Exact Audio Copy V1.3 from 2. September 2016

EAC extraction logfile from 3. November 2019, 15:21

Frans Brüggen, Gustav Leonhardt, Anner Bylsma / Bach - Complete Sonatas and Partita for Flute (I)

Used drive : PIONEER DVD-RW DVR-218L Adapter: 1 ID: 0

Read mode : Secure
Utilize accurate stream : Yes
Defeat audio cache : Yes
Make use of C2 pointers : No

Read offset correction : 6
Overread into Lead-In and Lead-Out : No
Fill up missing offset samples with silence : Yes
Delete leading and trailing silent blocks : No
Null samples used in CRC calculations : Yes
Used interface : Native Win32 interface for Win NT & 2000

Used output format : User Defined Encoder
Selected bitrate : 128 kBit/s
Quality : High
Add ID3 tag : No
Command line compressor : C:\Program Files\Exact Audio Copy\FLAC\FLAC.EXE
Additional command line options : -V -8 -T "Date=%year%" -T "Genre=%genre%" %source%


TOC of the extracted CD

Track | Start | Length | Start sector | End sector
––––––––––––––––––––––––––––-
1 | 0:00.00 | 8:33.57 | 0 | 38531
2 | 8:33.57 | 4:23.40 | 38532 | 58296
3 | 12:57.22 | 5:46.28 | 58297 | 84274
4 | 18:43.50 | 2:47.27 | 84275 | 96826
5 | 21:31.02 | 3:23.08 | 96827 | 112059
6 | 24:54.10 | 4:34.35 | 112060 | 132644
7 | 29:28.45 | 3:22.05 | 132645 | 147799
8 | 32:50.50 | 5:35.52 | 147800 | 172976
9 | 38:26.27 | 3:31.70 | 172977 | 188871
10 | 41:58.22 | 4:10.63 | 188872 | 207684


Range status and errors

Selected range

Filename C:\ArlegZ\Bach - Complete Sonatas and Partita for Flute (I).wav

Peak level 98.0 %
Extraction speed 1.7 X
Range quality 100.0 %
Test CRC 72DE2E0B
Copy CRC 72DE2E0B
Copy OK

No errors occurred


AccurateRip summary

Track 1 accurately ripped (confidence 7) [97D8C1FA] (AR v2)
Track 2 accurately ripped (confidence 7) [58FA9D4B] (AR v2)
Track 3 accurately ripped (confidence 7) [08A7CD4B] (AR v2)
Track 4 accurately ripped (confidence 7) [C46FC2D8] (AR v2)
Track 5 accurately ripped (confidence 7) [E374E04E] (AR v2)
Track 6 accurately ripped (confidence 7) [A00ABDF0] (AR v2)
Track 7 accurately ripped (confidence 7) [ACDDD9AB] (AR v2)
Track 8 accurately ripped (confidence 7) [1D4CE01F] (AR v2)
Track 9 accurately ripped (confidence 7) [FF0A40E6] (AR v2)
Track 10 accurately ripped (confidence 7) [E0FB53A3] (AR v2)

All tracks accurately ripped

End of status report

==== Log checksum 910CDE6AC16377DF3D78DD011918292AD43F59A8691F291925DC7C73BF58A595 ====


Exact Audio Copy V1.3 from 2. September 2016

EAC extraction logfile from 3. November 2019, 14:26

Frans Brüggen, Gustav Leonhardt, Anner Bylsma / Bach - Complete Sonatas and Partita for Flute (II)

Used drive : PIONEER DVD-RW DVR-218L Adapter: 1 ID: 0

Read mode : Secure
Utilize accurate stream : Yes
Defeat audio cache : Yes
Make use of C2 pointers : No

Read offset correction : 6
Overread into Lead-In and Lead-Out : No
Fill up missing offset samples with silence : Yes
Delete leading and trailing silent blocks : No
Null samples used in CRC calculations : Yes
Used interface : Native Win32 interface for Win NT & 2000

Used output format : User Defined Encoder
Selected bitrate : 128 kBit/s
Quality : High
Add ID3 tag : No
Command line compressor : C:\Program Files\Exact Audio Copy\FLAC\FLAC.EXE
Additional command line options : -V -8 -T "Date=%year%" -T "Genre=%genre%" %source%


TOC of the extracted CD

Track | Start | Length | Start sector | End sector
––––––––––––––––––––––––––––-
1 | 0:00.00 | 3:39.12 | 0 | 16436
2 | 3:39.12 | 2:38.63 | 16437 | 28349
3 | 6:18.00 | 3:32.72 | 28350 | 44321
4 | 9:50.72 | 4:31.53 | 44322 | 64699
5 | 14:22.50 | 4:37.32 | 64700 | 85506
6 | 19:00.07 | 2:49.50 | 85507 | 98231
7 | 21:49.57 | 3:54.25 | 98232 | 115806
8 | 25:44.07 | 1:53.00 | 115807 | 124281
9 | 27:37.07 | 5:50.50 | 124282 | 150581
10 | 33:27.57 | 3:29.00 | 150582 | 166256
11 | 36:56.57 | 3:07.00 | 166257 | 180281
12 | 40:03.57 | 4:19.00 | 180282 | 199706
13 | 44:22.57 | 2:06.10 | 199707 | 209166
14 | 46:28.67 | 4:24.48 | 209167 | 229014


Range status and errors

Selected range

Filename C:\ArlegZ\Bach - Complete Sonatas and Partita for Flute (II).wav

Peak level 96.1 %
Extraction speed 1.8 X
Range quality 100.0 %
Test CRC C47440B3
Copy CRC C47440B3
Copy OK

No errors occurred


AccurateRip summary

Track 1 accurately ripped (confidence 7) [E6F665F6] (AR v2)
Track 2 accurately ripped (confidence 7) [C7F316AE] (AR v2)
Track 3 accurately ripped (confidence 7) [8DE95D26] (AR v2)
Track 4 accurately ripped (confidence 7) [2E18E5C5] (AR v2)
Track 5 accurately ripped (confidence 7) [9C6DA56F] (AR v2)
Track 6 accurately ripped (confidence 7) [F76D8E38] (AR v2)
Track 7 accurately ripped (confidence 7) [36D7AC30] (AR v2)
Track 8 accurately ripped (confidence 7) [1DC787DF] (AR v2)
Track 9 accurately ripped (confidence 6) [BF0CFA7D] (AR v2)
Track 10 accurately ripped (confidence 6) [C5FF1BB5] (AR v2)
Track 11 accurately ripped (confidence 6) [BBC421DC] (AR v2)
Track 12 accurately ripped (confidence 6) [033CBCD9] (AR v2)
Track 13 accurately ripped (confidence 6) [FF2145DD] (AR v2)
Track 14 accurately ripped (confidence 6) [9B34295E] (AR v2)

All tracks accurately ripped

End of status report

==== Log checksum DD10CC26A78C8FCE175E23CA4C8CB1BD82E10002385D18F02FCC48F968A44DA7 ====


Flute Concertos & Sonatas: J. S. Bach, C.P.E. Bach, C. Stamitz, J. Stamitz, Gluck, Quantz & others [6CDs] (2012)