Tags
Language
Tags

Frankie Miller - Falling In Love (1979)

Posted By: v3122
Frankie Miller - Falling In Love (1979)

Frankie Miller - Falling In Love (1979)
EAC | Flac(Image) + Cue + Log & MP3 CBR 320Kbps
2004 | Eagle Records, EAMCD155 / GAS 0000155 EAM | ~ 430 or 147 Mb | Artwork(jpg) -> 6.89 Mb
Classic Rock

The recording process for Frankie Miller’s sixth solo album “Falling In Love”, which was re-titled “A Perfect Fit” for its American release, was a far lower key affair than some of his previous ones. There was no Allen Toussaint, no fancy New York or New Orleans studio, and no band either. The Full House band had long been disbanded and even the main contributers to the last album had gone on to pastures new. Recorded in Surrey, England during the summer of 1978 at the studios of producer Dave Mackay the only real permanent fixture apart from Miller and Mackay was guitarist Steve Simpson. Simpson had played previously with Meal Ticket and was to go on to be an integral part of Roger Chapman’s success in later years. The cast list of session musicians featured Paul Carrack on keyboards who had been on the previous album “Double Trouble” and Chris Slade on drums who would go on to be a member of Uriah Heep and AC/DC as well as being a founder member of The Firm with Paul Rodgers, Jimmy Page and Tony Franklin.
As was becoming the norm for a Miller release the tracks on the album were equally divided between original Miller compositions and covers of other peoples tunes. The first of the self penned tunes ‘When I’m Away From You’ kicks the album off and is a quite fast paced country rock tune with a nice acoustic intro. A typically gritty but heartfelt lyric from Miller gives the song an almost bittersweet feel that remains throughout the album. The track was covered in later years by numerous artists including Kim Carnes and The Bellamy Brothers. Released as a single from the album early in January 1979 it almost scraped into the UK top forty but fell a few places short. The first of the covers is Bob Marley’s ‘Is This Love’ and it is surely the oddest choice of cover in Miller’s career. His leanings towards soul music were obvious and well known but reggae was something of a departure from the norm. In truth this version only has a slight reggae calypso beat and is backed by what sounds curiously like a glockenspiel although there is no mention of it on the credits. It doesn’t sit comfortably on the album for me but that is quite possibly due to the session musician mentality of playing to instructions on a style of music they are not familiar with. The live versions of the song have a more soul like bluesy feel and give some insight into why it was attempted in the studio. ‘If I Can Love Somebody’ is one of the highlights on the album and features a typically Miller melacholy vocal which is absolutely dripping in feeling and emotion over a lone piano …. it is probably what Rod Stewart wishes he sounded like and is amongst Miller’s best ever vocal performances. The string section in the middle is a nice break before Miller is back taking the song to its close with a vocal that would put a lump into the throat of even the most stone hearted listener. It was written by US singer songwriter John Hiatt who never actually recorded it himself. Whether this was because after he had heard Miller’s version he decided he couldn’t better it I don’t know but it is certainly a good theory. The fourth track on the album ‘Darlin’ became Millers biggest hit and although it is a pleasant enough song it is a travesty that Miller is to a mainstream audience best known for what is little more than a throwaway camp fire singalong country song. It was written by Stuart Blandamer who went on to have great writing and limited recording success with the Q-Tips, the band Paul Young fronted before he hit pay dirt with his debut solo album “No Parlez”. It hit the dizzy heights of number six in the UK singles chart in the autumn of 1978 and gave Miller his only ever top ten hit. It is just a shame and one of those sad ironies that he reached the height of his fame with something that was not indicative of his regular output. I wonder what the hundreds of teenage girls who purchased the single made of the B-side ‘Drunken Nights In The City’ which was a typical Miller bar room blues from his 1975 album “The Rock”. I would guess many never played it more than the once. Curiously the track was also recorded by Welsh crooner Tom Jones who had a minor hit with it in America. The second of the self penned songs ‘And Its Your Love’ a slower composition more in keeping with his older material closes the first half of the album with another melancholy lilt.

‘A Woman To Love’ kicks off the second half and had been in the live set for a while. It is a good throwback to the Full House days and not surprisingly it is one of the best tracks on offer here and features some great horn work from Ron Asprey as well as some of the albums better guitar work. The jamming section to fade is also worthy of note as it features some great screaming vocal acrobatics. ‘Falling In Love With You’ is a folky acoustic blues again from the pen of Miller. Grammatical errors in the lyric aside it is great little tune and surely would have been a more palatable hit for Miller than ‘Darlin’ was. On the downside it probably goes on a little too long. ‘Every Time A Teardrop Falls’ is almost veering off into bluegrass gospel territory, Linda Taylor shares a lot of the vocal and its more duet than backing vocal ….. the two voices work well together and give what is in truth a fairly ordinary song a little bit of something to lift it above the ordinary. ‘Pappa Don’t Know’ is a great upbeat fun motown soul type workout and you would be forgiven for thinking it was an obscure composition from one of the soul greats. It is in fact a Miller composition and gives a great insight into his musical roots and influences.. A great bouncing rhythm is garnished with some more great horn work from Asprey and a deep vocal echo which is either Paul Carrack, a vocal group called Plain Sailing, Miller himself using studio trickery or is uncredited. Whoever or whatever it is it is a great foil to Millers velvety whisky tinged soul. ‘Good To See You’ could almost be Rod Stewart’s Sailing revisited especially during the chorus but if you can keep that song out of your mind it is a pleasant enough if not spectacular way to end the album.

The American version of the album was a curious affair. Firstly it was entitled “A Perfect Fit”. Now quite why the album needed a different title in America has never been made clear. It also completely changed the running order but kept exactly the same artwork and packaging. However the strangest thing was the omission of what in my opinion is the best track on the album ‘If I Can Love Somebody’. The only possibility I can come up with is that maybe it was something to do with the American writer John Hiatt not wanting it released in his native country before he had recorded it himself. Although that does seem a little strange. If it was down to some suit at the record company then I can only hope his career was short. The replacement track was the Holland/Dozier/Holland track ‘Something About You’ which was a hit for the Four Tops in 1965. It is perfectly suited to Miller’s style and is similar in feel to his ‘Double Trouble’ album which was released the year before. The decision to omit it from the UK version is almost as surprising as the omission of the Hiatt track from the American version. I would go as far as to say both decisions were criminal. Fortunately the CD remaster age has rectified the problem and they are both now included.

“Falling In Love” gave Frankie Miller his long awaited hit with ‘Darlin’ but also brought with it its own problems. A top ten single, countless plays on national radio, appearances in teenage girls magazines and on Top of the Pops all led to gigs being attended by a different kind of audience to the ones Miller was used to. He still maintains that the song lost him a lot of his fan base as they felt he had sold out to the teeny bopper pop brigade and the pensioners due to the cheesy schmaltz of the hit. The use of Dave Mackay as producer was also something with ultimately didn’t help Miller’s career in the way it was possibly supposed to. The musicians don’t appear to me to have been given enough room for improvisation and even Miller seems more restrained in some places. The overall feel is more geared towards pop and country than the soul, blues and rock of the earlier albums and I would guess that Mackay had more input into the choice of covers and arrangements than Miller did. Having said that it is still a great album from a great under rated singer.

by Martin Leedham, martinleedham.wordpress.com
Frankie Miller - Falling In Love (1979):

Frankie Miller - Falling In Love (1979)

Tracklist:

01. When I'm Away From You (3:25)
02. Is This Love (2:54)
03. If I Can Love Somebody (2:48)
04. Darlin' (3:08)
05. And It's Your Love (3:57)
06. A Woman To Love (3:39)
07. Falling In Love With You (4:38)
08. Every Time A Teardrop Falls (2:37)
09. Pappa Don't Know (3:42)
10. Good To See You (5:01)
11. Something About You (2:58)

Bonus Tracks:
12. Is This Love (Live) (3:41)
13. Cry To Me (Live) (5:37)
14. Cold Turkey (Live) (7:49)
15. When Something Is Wrong With My Baby (Live) (6:00)

Exact Audio Copy V0.99 prebeta 5 from 4. May 2009

EAC extraction logfile from 10. November 2009, 18:58

Frankie Miller / Falling In Love… A Perfect Fit

Used drive : HL-DT-STDVDRAM GSA-T20N Adapter: 0 ID: 0

Read mode : Secure
Utilize accurate stream : Yes
Defeat audio cache : Yes
Make use of C2 pointers : No

Read offset correction : 667
Overread into Lead-In and Lead-Out : No
Fill up missing offset samples with silence : Yes
Delete leading and trailing silent blocks : No
Null samples used in CRC calculations : Yes
Used interface : Native Win32 interface for Win NT & 2000
Gap handling : Appended to previous track

Used output format : User Defined Encoder
Selected bitrate : 768 kBit/s
Quality : High
Add ID3 tag : No
Command line compressor : C:\Program Files\Exact Audio Copy\FLAC\FLAC.EXE
Additional command line options : -8 -V -T "ARTIST=%a" -T "TITLE=%t" -T "ALBUM=%g" -T "DATE=%y" -T "TRACKNUMBER=%n" -T "GENRE=%m" -T "COMMENT=Ripped by Netzork" %s -o %d


TOC of the extracted CD

Track | Start | Length | Start sector | End sector
––––––––––––––––––––––––––––-
1 | 0:00.00 | 3:25.27 | 0 | 15401
2 | 3:25.27 | 2:54.27 | 15402 | 28478
3 | 6:19.54 | 2:48.24 | 28479 | 41102
4 | 9:08.03 | 3:08.44 | 41103 | 55246
5 | 12:16.47 | 3:57.08 | 55247 | 73029
6 | 16:13.55 | 3:38.74 | 73030 | 89453
7 | 19:52.54 | 4:38.01 | 89454 | 110304
8 | 24:30.55 | 2:37.34 | 110305 | 122113
9 | 27:08.14 | 3:42.04 | 122114 | 138767
10 | 30:50.18 | 5:01.11 | 138768 | 161353
11 | 35:51.29 | 2:58.15 | 161354 | 174718
12 | 38:49.44 | 3:41.34 | 174719 | 191327
13 | 42:31.03 | 5:37.33 | 191328 | 216635
14 | 48:08.36 | 7:49.34 | 216636 | 251844
15 | 55:57.70 | 6:00.02 | 251845 | 278846


Track 1

Filename E:\Frankie Miller - Falling In Love… A Perfect Fit (1979)\01 - When I'm Away From You.wav

Pre-gap length 0:00:02.00

Peak level 94.4 %
Track quality 100.0 %
Test CRC 354C811C
Copy CRC 354C811C
Accurately ripped (confidence 1) [58033C0D]
Copy OK

Track 2

Filename E:\Frankie Miller - Falling In Love… A Perfect Fit (1979)\02 - Is This Love.wav

Pre-gap length 0:00:02.57

Peak level 94.4 %
Track quality 100.0 %
Test CRC C10B9B70
Copy CRC C10B9B70
Accurately ripped (confidence 1) [DEC50B81]
Copy OK

Track 3

Filename E:\Frankie Miller - Falling In Love… A Perfect Fit (1979)\03 - If I Can Love Somebody.wav

Pre-gap length 0:00:02.57

Peak level 94.4 %
Track quality 99.9 %
Test CRC FD6E9045
Copy CRC FD6E9045
Accurately ripped (confidence 1) [C6696265]
Copy OK

Track 4

Filename E:\Frankie Miller - Falling In Love… A Perfect Fit (1979)\04 - Darlin'.wav

Pre-gap length 0:00:02.57

Peak level 94.4 %
Track quality 100.0 %
Test CRC 9949C7DF
Copy CRC 9949C7DF
Accurately ripped (confidence 1) [3B5461F8]
Copy OK

Track 5

Filename E:\Frankie Miller - Falling In Love… A Perfect Fit (1979)\05 - And It's Your Love.wav

Pre-gap length 0:00:02.57

Peak level 94.4 %
Track quality 99.9 %
Test CRC F3B16430
Copy CRC F3B16430
Accurately ripped (confidence 1) [B9BA9234]
Copy OK

Track 6

Filename E:\Frankie Miller - Falling In Love… A Perfect Fit (1979)\06 - A Woman To Love.wav

Pre-gap length 0:00:02.57

Peak level 94.4 %
Track quality 100.0 %
Test CRC C9BC882C
Copy CRC C9BC882C
Accurately ripped (confidence 1) [0BB82D43]
Copy OK

Track 7

Filename E:\Frankie Miller - Falling In Love… A Perfect Fit (1979)\07 - Falling In Love With You.wav

Pre-gap length 0:00:02.57

Peak level 94.4 %
Track quality 100.0 %
Test CRC 20A4236A
Copy CRC 20A4236A
Accurately ripped (confidence 1) [5C735641]
Copy OK

Track 8

Filename E:\Frankie Miller - Falling In Love… A Perfect Fit (1979)\08 - Every Time A Teardrop Falls.wav

Pre-gap length 0:00:02.57

Peak level 94.4 %
Track quality 100.0 %
Test CRC C307C52D
Copy CRC C307C52D
Accurately ripped (confidence 1) [0DC3A96B]
Copy OK

Track 9

Filename E:\Frankie Miller - Falling In Love… A Perfect Fit (1979)\09 - Pappa Don't Know.wav

Pre-gap length 0:00:02.57

Peak level 94.4 %
Track quality 100.0 %
Test CRC 72FC04AD
Copy CRC 72FC04AD
Accurately ripped (confidence 1) [475AB329]
Copy OK

Track 10

Filename E:\Frankie Miller - Falling In Love… A Perfect Fit (1979)\10 - Good To See You.wav

Pre-gap length 0:00:02.57

Peak level 94.4 %
Track quality 99.9 %
Test CRC 9F625AFB
Copy CRC 9F625AFB
Accurately ripped (confidence 1) [50BE4291]
Copy OK

Track 11

Filename E:\Frankie Miller - Falling In Love… A Perfect Fit (1979)\11 - Something About You.wav

Pre-gap length 0:00:02.57

Peak level 94.4 %
Track quality 100.0 %
Test CRC D16DFA30
Copy CRC D16DFA30
Accurately ripped (confidence 1) [F72151D5]
Copy OK

Track 12

Filename E:\Frankie Miller - Falling In Love… A Perfect Fit (1979)\12 - Is This Love (Live).wav

Pre-gap length 0:00:02.57

Peak level 89.1 %
Track quality 100.0 %
Test CRC FB4F6935
Copy CRC FB4F6935
Accurately ripped (confidence 1) [11432667]
Copy OK

Track 13

Filename E:\Frankie Miller - Falling In Love… A Perfect Fit (1979)\13 - Cry To Me (Live).wav

Pre-gap length 0:00:02.57

Peak level 89.1 %
Track quality 100.0 %
Test CRC B5C1697F
Copy CRC B5C1697F
Accurately ripped (confidence 1) [B51A180B]
Copy OK

Track 14

Filename E:\Frankie Miller - Falling In Love… A Perfect Fit (1979)\14 - Cold Turkey (Live).wav

Pre-gap length 0:00:02.58

Peak level 84.1 %
Track quality 100.0 %
Test CRC 622A2DB4
Copy CRC 622A2DB4
Accurately ripped (confidence 1) [299DFF05]
Copy OK

Track 15

Filename E:\Frankie Miller - Falling In Love… A Perfect Fit (1979)\15 - When Something Is Wrong With My Baby (Live).wav

Pre-gap length 0:00:02.57

Peak level 89.1 %
Track quality 100.0 %
Test CRC 5C3817C1
Copy CRC 5C3817C1
Accurately ripped (confidence 1) [F71BB087]
Copy OK


All tracks accurately ripped

No errors occurred

End of status report


[CUETools log; Date: 01.08.2020 11:19:49; Version: 2.1.4]
[AccurateRip ID: 001dbbd7-01592c7e-c90e850f] found.
Track [ CRC | V2 ] Status
01 [58033c0d|757ec4b4] (5+4/9) Accurately ripped
02 [dec50b81|d59c7efc] (5+4/9) Accurately ripped
03 [c6696265|c15c4bb8] (5+4/9) Accurately ripped
04 [3b5461f8|9f4963b1] (5+4/9) Accurately ripped
05 [b9ba9234|2cefa586] (5+4/9) Accurately ripped
06 [0bb82d43|2fd203bb] (5+4/9) Accurately ripped
07 [5c735641|98f1dc9e] (5+4/9) Accurately ripped
08 [0dc3a96b|66ef8a87] (5+4/9) Accurately ripped
09 [475ab329|e1257dd5] (5+4/9) Accurately ripped
10 [50be4291|ebf5aec9] (5+4/9) Accurately ripped
11 [f72151d5|0cf4650f] (5+4/9) Accurately ripped
12 [11432667|3f82a7d2] (5+4/9) Accurately ripped
13 [b51a180b|f12df03c] (5+4/9) Accurately ripped
14 [299dff05|b9df80e6] (5+4/9) Accurately ripped
15 [f71bb087|4440344c] (5+4/9) Accurately ripped

Track Peak [ CRC32 ] [W/O NULL] [ LOG ]
– 94,4 [2EB463B0] [BDCB5ABF]
01 94,4 [354C811C] [AF13288F] CRC32
02 94,4 [C10B9B70] [A35DB7F0] CRC32
03 94,4 [FD6E9045] [9C1D8887] CRC32
04 94,4 [9949C7DF] [7C3F451E] CRC32
05 94,4 [F3B16430] [C0F24171] CRC32
06 94,4 [C9BC882C] [626024DF] CRC32
07 94,4 [20A4236A] [EBF1A1C0] CRC32
08 94,4 [C307C52D] [FB3F7FB7] CRC32
09 94,4 [72FC04AD] [7E02C5E6] CRC32
10 94,4 [9F625AFB] [027D7B3F] CRC32
11 94,4 [D16DFA30] [2A06853B] CRC32
12 89,1 [FB4F6935] [C32F767D] CRC32
13 89,1 [B5C1697F] [69398CA8] CRC32
14 84,1 [622A2DB4] [A540814E] CRC32
15 89,1 [5C3817C1] [3EB3D843] CRC32


Frankie Miller - Falling In Love (1979)

All thanks go to the original releaser

Frankie Miller in my Blog

Download Frankie Miller - Falling In Love (1979):