Subcategories

Frans Bruggen, Anner Bylsma, Gustav Leonhardt - Corelli: Sonatas Op. 5 Nos. 7-11, No. 12 'La Follia' (1986)

Posted By: ArlegZ
Frans Bruggen, Anner Bylsma, Gustav Leonhardt - Corelli: Sonatas Op. 5 Nos. 7-11, No. 12 'La Follia' (1986)

Frans Brüggen, Anner Bylsma, Gustav Leonhardt - Corelli: Sonatas Op. 5 Nos. 7-11, No. 12 'La Follia' (1986)
EAC | FLAC | Image (Cue & Log) ~ 284 Mb | Total time: 53:23 | Scans included
Classical | Label: RCA | # RD 71055 | Recorded: 1980

These dozen sonatas fully constitute one-sixth of Corelli's published output and strongly influenced the form of the violin sonata in the early decades of the eighteenth century. The collection is in many ways a condensation of Corelli's four earlier volumes of trio sonatas; here are solo sonatas (front-and-center violin, accompanied by a continuo section of at least a keyboard and usually cello or gamba, sometimes with the addition of theorbo or some other member of the lute family), with the works divided between six church sonatas (sonate da chiesa, the format of Corelli's Opp. 1 and 3 trio sonatas) and five chamber sonatas (sonate da camera, in the manner of Opp. 2 and 4). The final work follows neither convention; it's a theme with variations in a single movement. Although Corelli knew this music would be purchased and played mainly by amateurs, he requires a great deal of skill; this set is something of a compendium of violin technique ca. 1700.
Each of the six church sonatas consists of five movements carrying tempo indications rather than the names of dances. The first movement is always imposing and slow (marked either Grave or Adagio), the spacious tempo allowing florid melodic lines. This is always followed by a fast movement, either Allegro or Vivace, often a fugue whose counterpoint requires double and triple stops. Next comes a pair of movements, one fast and the other slow, although the order varies; these are lighter than what has come before, and may suggest some dance form without fully committing to one. The finale is fast, sometimes another fugue, sometimes dancelike (Corelli actually calls one "Giga").
The five chamber sonatas accomplish much the same sort of work with a lighter touch. They are in either four or five movements, the first always called Preludio and usually slow (except for Sonata No. 7, which is Vivace). Next come three movements in fast-slow-fast pattern. The first of these may be a Corrente, Allemanda, or Giga; the second is usually called Sarabanda; the third is generally a Giga (when that wasn't the basis of an earlier movement) or Gavotta. The 10th and 11th sonatas end with an extra Allegro, a Giga in the first case, a Gavotta in the second. The final sonata is a set of 24 variations on the old "La Folia" chord progression, offering a variety of tempo, character, and harmony, and ultimately requiring great virtuosity.
– James Reel

Performer:
Frans Brüggen, recorder
Anner Bylsma, baroque cello
Gustav Leonhardt, harpsichord

Track List:
Sonata, Op 5 No. 7, G Minor
01. Preludio -Vivace
02. Corrente -Allegro
03. Sarabanda - Largo
04. Giga - Allegro
Sonata, Op 5 No. 8, A Minor
05. Preludio - Largo
06. Allemanda - Allegro
07. Sarabanda - Largo
08. Giga - Allegro
Sonata, Op 5 No. 9, E-Flat Minor
09. Preludio - Largo
10. Giga -Allegro
11. Adagio
12. Tempo di Gavotta - Allegro
Sonata, Op 5 No.10, C Major
13. Preludio - Adagio
14. Allemanda - Allegro
15. Sarabanda - Largo
16. Gavotta - Allegro
17. Giga - Allegro
Sonata, Op 5 No.11, B-Flat Major
18. Preludio - Adagio
19. Allegro
20. Adagio - Vivace
21. Gavotta - Allegro
22. La Follia Op 5 No.12, G Minor


Exact Audio Copy V1.1 from 23. June 2015

EAC extraction logfile from 13. August 2019, 22:31

Brüggen, Leonhardt, Bylsma / Corelli - Sonatas Op.5 No.7-12 'La Follia'

Used drive : HL-DT-STDVDRAM GP57EB40 Adapter: 1 ID: 1

Read mode : Secure
Utilize accurate stream : Yes
Defeat audio cache : Yes
Make use of C2 pointers : No

Read offset correction : 6
Overread into Lead-In and Lead-Out : No
Fill up missing offset samples with silence : Yes
Delete leading and trailing silent blocks : No
Null samples used in CRC calculations : Yes
Used interface : Native Win32 interface for Win NT & 2000

Used output format : User Defined Encoder
Selected bitrate : 1024 kBit/s
Quality : High
Add ID3 tag : No
Command line compressor : C:\Program Files (x86)\Exact Audio Copy\FLAC\FLAC.EXE
Additional command line options : -6 -V -T "ARTIST=%artist%" -T "TITLE=%title%" -T "ALBUM=%albumtitle%" -T "DATE=%year%" -T "TRACKNUMBER=%tracknr%" -T "GENRE=%genre%" -T "COMMENT=%comment%" -T "BAND=%albuminterpret%" -T "ALBUMARTIST=%albuminterpret%" -T "COMPOSER=%composer%" %haslyrics%–tag-from-file=LYRICS="%lyricsfile%"%haslyrics% -T "DISCNUMBER=%cdnumber%" -T "TOTALDISCS=%totalcds%" -T "TOTALTRACKS=%numtracks%" %hascover%–picture="%coverfile%"%hascover% %source% -o %dest%


TOC of the extracted CD

Track | Start | Length | Start sector | End sector
––––––––––––––––––––––––––––-
1 | 0:00.00 | 9:28.00 | 0 | 42599
2 | 9:28.00 | 9:04.00 | 42600 | 83399
3 | 18:32.00 | 8:54.00 | 83400 | 123449
4 | 27:26.00 | 9:02.00 | 123450 | 164099
5 | 36:28.00 | 7:27.00 | 164100 | 197624
6 | 43:55.00 | 9:28.72 | 197625 | 240296


Range status and errors

Selected range

Filename F:\DP\Brüggen, Leonhardt, Bylsma - Corelli - Sonatas Op.5 No.7-12 'La Follia'.wav

Peak level 89.1 %
Extraction speed 1.9 X
Range quality 100.0 %
Test CRC 86E718E6
Copy CRC 86E718E6
Copy OK

No errors occurred


AccurateRip summary

Track 1 accurately ripped (confidence 17) [1E8F7406] (AR v2)
Track 2 accurately ripped (confidence 17) [07B6AE40] (AR v2)
Track 3 accurately ripped (confidence 17) [B37F3388] (AR v2)
Track 4 accurately ripped (confidence 17) [A1D42845] (AR v2)
Track 5 accurately ripped (confidence 17) [92041587] (AR v2)
Track 6 accurately ripped (confidence 17) [CDB75BC7] (AR v2)

All tracks accurately ripped

End of status report

–– CUETools DB Plugin V2.1.6

[CTDB TOCID: y8_9OZURxSeY6543W47ZK9rSU1U-] found
Submit result: y8_9OZURxSeY6543W47ZK9rSU1U- has been confirmed
Track | CTDB Status
1 | (26/27) Accurately ripped
2 | (27/27) Accurately ripped
3 | (26/27) Accurately ripped
4 | (27/27) Accurately ripped
5 | (26/27) Accurately ripped
6 | (27/27) Accurately ripped


==== Log checksum F6E78A335FE5005CBCB3BE3EC1434797B7FDB9C123B55BCB247E08CF69446C47 ====

Frans Bruggen, Anner Bylsma, Gustav Leonhardt - Corelli: Sonatas Op. 5 Nos. 7-11, No. 12 'La Follia' (1986)

Thanks to the original releaser