Subcategories

Franz Schmidt - Quintette (1992)

Posted By: uff
Franz Schmidt - Quintette (1992)

Franz Schmidt - Quintette (1992)
classical | 1CD | EAC Rip | APE+CUE+LOG | cover | 350MB
Orfeo | RAR +5% recovery

Franz Schmidt (22 December 1874 – 11 February 1939) was an Austrian composer, cellist and pianist of Hungarian descent and origin.
Quintett No. l G-Dur (1926)
Quintett No. 2 B-Dur (1932)

Exact Audio Copy V0.99 prebeta 4 from 23. January 2008

EAC extraction logfile from 9. December 2008, 9:11

Franz Schmidt / Quintette

Used drive : PHILIPS DVD+-RW DVD8701 Adapter: 0 ID: 0

Read mode : Secure
Utilize accurate stream : Yes
Defeat audio cache : Yes
Make use of C2 pointers : No

Read offset correction : 618
Overread into Lead-In and Lead-Out : No
Fill up missing offset samples with silence : Yes
Delete leading and trailing silent blocks : No
Null samples used in CRC calculations : Yes
Used interface : Installed external ASPI interface

Used output format : Monkey's Audio Lossless Encoder v3.99 DLL
Sample format : Fast Lossless Compression


TOC of the extracted CD

Track | Start | Length | Start sector | End sector
––––––––––––––––––––––––––––-
1 | 0:00.33 | 12:11.27 | 33 | 54884
2 | 12:11.60 | 11:40.03 | 54885 | 107387
3 | 23:51.63 | 8:41.70 | 107388 | 146532
4 | 32:33.58 | 7:01.50 | 146533 | 178157
5 | 39:35.33 | 12:39.05 | 178158 | 235087
6 | 52:14.38 | 15:35.02 | 235088 | 305214
7 | 67:49.40 | 10:14.18 | 305215 | 351282


Range status and errors

Selected range

Peak level 81.0 %
Range quality 99.9 %
Test CRC 0E87D3AD
Copy CRC 0E87D3AD
Copy OK

No errors occurred

End of status report

Quintett No. 1
fur Klavier. zwei Violinen, Viola und Violoncello
Urfassung für die linke Hand

[1] Lebhaft, doch nicht schnell (12'09)
[2] Adagio (11'37)
[3] Sehr ruhig - lebhaft (8'41)
[4] Sehr lebhaft (6'52)

Quintett No. 2
fur Klavier, Klarinette, Violine, Viola und Violoncello
Urfassung fur die linke Hand

[5] Andante tranquillo (12'35)
[6] Lento - Allegro vivace (15'33)
[7] Allegro ma non troppo (10'14)

(78'03)

Rainer Keuschnig - Klavier (linke Hand)
Ernst Ottensamer - Klarinette
Josef Hell - 1. Violine
Peter Wachter - 2. Violine
Peter Pecha - Viola
Gerhard Iberer ([1]-[4]) , Leonhard Wallisch ([5]-[7]) - Violoncello