Subcategories

Free - All Right Now (1970)

Posted By: v3122
Free - All Right Now (1970)

Free - All Right Now (1970)
EAC | Flac(Image) + Cue + Log & MP3 CBR 320Kbps
1991 | Island Records, CID 486/878 809-2 | ~ 97 or 39 Mb | Scans(jpg) -> 4.56 Mb
Blues Rock / Classic Rock

"All Right Now" is a single by the English rock band Free. The song, released in 1970, hit #2 on the UK singles chart and #4 on the US Billboard Hot 100 singles chart. "All Right Now" originally appeared on the album Fire and Water, which Free recorded on the Island Records label, formed by Chris Blackwell. In 1991, the song was remixed and re-released, reaching #8 on the UK singles chart.

"All Right Now" was a #1 hit in over 20 territories and was recognised by ASCAP (American Society of Composers, Authors, and Publishers) in 1990 for garnering 1,000,000 plus radio plays in the U.S. by late 1989. In 2006, the BMI London awards included a Million Air award for 3 million air plays of "All Right Now" in the USA.

According to drummer Simon Kirke, "All Right Now" was written by bassist Andy Fraser and singer Paul Rodgers in the Durham Students' Union building, Dunelm House.

One of the engineers during the recordings of "All Right Now" was Roy Thomas Baker…

~ wiki
Free - All Right Now (1970):

Free - All Right Now (1970)

Tracklist:

1.All Right Now (1991 Remix) 4:20
2.I'm A Mover 3:07
3.Get Where I Belong 3:26
4.All Right Now 5:29

Exact Audio Copy V1.0 beta 4 from 7. December 2014

EAC extraction logfile from 6. January 2015, 16:43

Free / All Right Now

Used drive : ASUS SDRW-08D1S-U Adapter: 1 ID: 1

Read mode : Secure
Utilize accurate stream : Yes
Defeat audio cache : Yes
Make use of C2 pointers : No

Read offset correction : 667
Overread into Lead-In and Lead-Out : No
Fill up missing offset samples with silence : Yes
Delete leading and trailing silent blocks : No
Null samples used in CRC calculations : Yes
Used interface : Native Win32 interface for Win NT & 2000

Used output format : User Defined Encoder
Selected bitrate : 128 kBit/s
Quality : High
Add ID3 tag : No
Command line compressor : C:\Program Files (x86)\Exact Audio Copy\Flac\flac.exe
Additional command line options : -V -8 -T "Date=%year%" -T "Genre=%genre%" %source%


TOC of the extracted CD

Track | Start | Length | Start sector | End sector
––––––––––––––––––––––––––––-
1 | 0:00.00 | 4:20.72 | 0 | 19571
2 | 4:20.72 | 3:07.25 | 19572 | 33621
3 | 7:28.22 | 3:26.35 | 33622 | 49106
4 | 10:54.57 | 5:29.45 | 49107 | 73826


Range status and errors

Selected range

Filename C:\Users\Олег\Desktop\Free\Free - All Right Now.wav

Peak level 74.8 %
Extraction speed 1.5 X
Range quality 99.9 %
Test CRC D36AFFD3
Copy CRC 9C939D7C
Copy OK

No errors occurred


AccurateRip summary

Track 1 accurately ripped (confidence 3) [AEC21DAF] (AR v2)
Track 2 accurately ripped (confidence 2) [25F7E1AF] (AR v2)
Track 3 accurately ripped (confidence 2) [D6B1FA6D] (AR v2)
Track 4 cannot be verified as accurate (confidence 3) [6877C676], AccurateRip returned [2F1CA7A9] (AR v2)

3 трек(и) скопированы точно
1 трек(и) не удалось проверить на точность

Some tracks could not be verified as accurate

End of status report

–– CUETools DB Plugin V2.1.4

[CTDB TOCID: ig_XZql0j79xas3ANbxwUtd2PuY-] found
Submit result: insufficient quality
Track | CTDB Status
1 | (2/2) Accurately ripped
2 | (2/2) Accurately ripped
3 | (2/2) Accurately ripped
4 | (2/2) Differs in 4 samples @01:20:04
If you are sure that your rip contains errors, you can use CUETools to repair it.


==== Log checksum CF9530CC7119092B3AD9E7D5A92E7C6E8A69C0906C01F523DD8AAA1544CA2F71 ====


[CUETools log; Date: 12.04.2018 11:17:29; Version: 2.1.5]
[AccurateRip ID: 0002b000-000ac426-2603d804] found.
Track [ CRC | V2 ] Status
01 [041d5118|aec21daf] (02+04/16) Accurately ripped
02 [3aa006b9|25f7e1af] (02+02/15) Accurately ripped
03 [13b18baf|d6b1fa6d] (02+02/15) Accurately ripped
04 [2f2224f8|6877c676] (00+00/16) No match
Offsetted by 309:
01 [e807bf9b] (03/16) Accurately ripped
02 [7bf40062] (03/15) Accurately ripped
03 [10d22878] (03/15) Accurately ripped
04 [552a15e5] (00/16) No match (V2 was not tested)

Track Peak [ CRC32 ] [W/O NULL] [ LOG ]
– 74,8 [9C939D7C] [BD05B3F8] CRC32
01 74,8 [4CA1A48F] [FBC77C62]
02 61,2 [92792380] [DA525DB7]
03 51,8 [651083AC] [DFE3E778]
04 65,8 [1A527E36] [FDCA7659]


Free - All Right Now (1970)

All thanks go to the original releaser

Free or Free in my Blog

Download Free - All Right Now (1970):