Tags
Language
Tags

Fretwork - English Music for Viols: Jenkins, Lawes, Locke, Purcell [5CDs] (2008)

Posted By:
Fretwork - English Music for Viols: Jenkins, Lawes, Locke, Purcell [5CDs] (2008)

Fretwork - English Music for Viols: Jenkins, Lawes, Locke, Purcell (2008)
EAC | FLAC | Image (Cue & Log) ~ 1.63 Gb | Total time: 5 h 28 min | Scans included
Classical | Label: Virgin Classics ‎| 3 95164 2 | Recorded: 1986-1996

This is a superb set of 5 CDs, covering works for viols by four 17the century English composers: John Jenkins, William Lawes (on 2 CDs), Matthew Locke, and Henry Purcell. It is a pure bliss for Baroque, especially chamber music lovers. The works recorded vary: fantasy, suite, pavan, consort, etc., but all are superbly performed by Fretwork Ensemble for 6 viols, sometimes accompanied by organ, spinet, and archlute. The quality of the recording is excellent: a 2001 remastering of previous various recordings done between 1986 and 1996.

Performer:
Fretwork

Track List:
CD1: John Jenkins (1592-1678) – Consort Music
01. Fantasy A 5 No.16 In D Major
02. Fantasy A 6 No.8 In A Minor
Suite No.4 For 2 Trebles, Bass & Organ In C Major
03. Fancy
04. Ayre
05. Fantasy A 4 No.6 In F Major
06. Fantasy A 5 No.7 In C Minor
07. Pieces For Lyra Viol (Prelude, Almain, Corant)
Viol [Lyra Viol] – Richard Boothby
08. Fantasy A 4 No.12 In D Major
09. In Nomine A 6 No.2 In E Minor
10. Pavan For 2 Bass Viols In A Minor
11. Fantasy A 4 No.5 In F Major
12. Fantasy A 6 No.3 In C Minor
Suite No.7 For Treble, 2 Basses & Organ In D Minor
13. Fancy
14. Almain
15. Corant
16. Pavan A 6 No.2 In F Major
17. Divisions For 2 Bass Viols In D Major
18. Fantasy A 5 No.8 In C Minor
19. In Nomine A 6 No.1 In G Minor

William Lawes (1602-1645) – Consort Setts in 5 & 6 Parts / Airs and Dances for Lyra Viols
CD2:
Consort Sett A 6 In F Major
01. Fantazy
02. Aire
03. Fantazy
04. Aire
Consort Sett A 5 In A Minor
05. Fantazy
06. Fantazy
07. Aire
Two Dances For Lyra Viol
08. Countrey Coll (VDGS 421)
09. Jigg (VDGS 422)
Consort Sett A 5 In C Major
10. Fantazy
11. Paven
12. Almaine
Consort Sett A 5 In F Major
13. Fantazy
14. Paven
15. Aire
Airs For 3 Lyra Viols
16. ffantasie (VDGS 573)
17. Humour (VDGS 568)
Consort Sett A 6 In C Minor
18. Fantazia
19. Fantazia
20. Inominy
21. Aire
CD3:
Consort Sett A 6 In G Minor
01. Paven
02. Fantazy
03. Aire
Consort Sett A 5 In C Minor
04. Fantazy
05. Aire
06. Paven
07. Aire
Three Dances For Lyra Viol
08. Almaine (VDGS 430)
09. Corant (VDGS 431)
10. Saraband (VDGS 432)
Consort Sett A 6 In C Major
11. Fantazy
12. Fantazy
13. Aire
Consort Sett A 5 In G Minor
14. Fantazya
15. On The Playnsong
16. Aire
Two Aires For Lyra Viol
17. Aire (VDGS 462)
18. Aire (VDGS 463)
Consort Sett A 6 In B Flay Major
19. Fantazia
20. Aire
21. Inominy

CD4: Matthew Locke (c.1622-1677) – Consort of Fower Parts / Two Duos for 2 Bass Viols
Suite No.1 In 4 Parts In D Minor
01. Fantasie
02. Courante
03. Ayre
04. Sarabande
Suite No.2 In 4 Parts In D
05. Fantasie
06. Courante
07. Ayre
08. Sarabande
Duo No.1 For 2 Bass Viols In C
09. Fantasie
10. Fantasie
11. Courante
12. Fantasie
13. Fantasie
14. Sarabande
Suite No.3 In 4 Parts In F Major
15. Fantasie
16. Courante
17. Ayre
18. Sarabande
Suite No.4 In 4 Parts In F Major
19. Fantasie
20. Courante
21. Ayre
22. Sarabande
Duo No.2 For 2 Bass Viols In D
23. Fantasie
24. Fantasie
25. Courante
26. Fantasie
27. Fantasie
28. Sarabande
Suite No.5 In 4 Parts In G Minor
29. Fantasie
30. Courante
31. Ayre
32. Sarabande
Suite No.6 In 4 Parts In G Major
33. Fantasie
34. Courante
35. Ayre
36. Sarabande

CD5: Henry Purcell (1659-1695) – The Fantazias & In Nomines
4 Part Fantazias
01. Fantazia 4 In G Minor (10 June 1680)
02. Fantazia 5 In B Flat Major (11 June 1680)
03. Fantazia 6 In F Major (14 June 1680)
04. Fantazia 7 In C Minor (17 June 1680)
05. Fantazia 8 In D Minor (22 June 1680)
06. Fantazia 9 In A Minor (23 June 1680)
07. Fantazia 10 In E Minor (30 June 1680)
08. Fantazia 11 In G Major (19 August 1680)
09. Fantazia 12 In D Minor (31 August 1680)
3 Part Fantazias
10. Fantazia 1 In D Minor
11. Fantazia 2 In F Major
12. Fantazia 3 In G Minor
13. 4 Part Fantazia In A Minor (Incomplete – 24 February 1680)
14. 5 Part Fantazia 'Upon One Note'
15. 6 Part In Nomine
16. 7 Part In Nomine


Exact Audio Copy V1.5 from 20. February 2020

EAC extraction logfile from 19. August 2020, 16:02

Jenkins - Consort music / Music for Viols CD1

Used drive : HL-DT-STDVDRAM GH24NSB0 Adapter: 1 ID: 0

Read mode : Secure
Utilize accurate stream : Yes
Defeat audio cache : Yes
Make use of C2 pointers : No

Read offset correction : 6
Overread into Lead-In and Lead-Out : No
Fill up missing offset samples with silence : Yes
Delete leading and trailing silent blocks : No
Null samples used in CRC calculations : Yes
Used interface : Native Win32 interface for Win NT & 2000

Used output format : User Defined Encoder
Selected bitrate : 128 kBit/s
Quality : High
Add ID3 tag : No
Command line compressor : C:\Program Files (x86)\Exact Audio Copy\Flac\flac.exe
Additional command line options : -8 -V %source%


TOC of the extracted CD

Track | Start | Length | Start sector | End sector
––––––––––––––––––––––––––––-
1 | 0:00.00 | 2:49.00 | 0 | 12674
2 | 2:49.00 | 3:52.12 | 12675 | 30086
3 | 6:41.12 | 5:44.63 | 30087 | 55949
4 | 12:26.00 | 3:56.30 | 55950 | 73679
5 | 16:22.30 | 2:50.12 | 73680 | 86441
6 | 19:12.42 | 3:56.38 | 86442 | 104179
7 | 23:09.05 | 5:19.35 | 104180 | 128139
8 | 28:28.40 | 4:12.32 | 128140 | 147071
9 | 32:40.72 | 4:30.53 | 147072 | 167374
10 | 37:11.50 | 5:02.52 | 167375 | 190076
11 | 42:14.27 | 3:09.68 | 190077 | 204319
12 | 45:24.20 | 3:41.10 | 204320 | 220904
13 | 49:05.30 | 5:39.35 | 220905 | 246364
14 | 54:44.65 | 2:13.47 | 246365 | 256386
15 | 56:58.37 | 1:33.70 | 256387 | 263431
16 | 58:32.32 | 7:35.58 | 263432 | 297614
17 | 66:08.15 | 3:53.50 | 297615 | 315139
18 | 70:01.65 | 3:53.07 | 315140 | 332621
19 | 73:54.72 | 4:17.65 | 332622 | 351961


Range status and errors

Selected range

Filename C:\Work directories\Rips\Jenkins - Consort music (Music for Viols CD1) - Fretwork.wav

Peak level 86.4 %
Extraction speed 2.1 X
Range quality 99.9 %
Copy CRC FB6798DF
Copy OK

No errors occurred


AccurateRip summary

Track 1 accurately ripped (confidence 10) [437580AC] (AR v2)
Track 2 accurately ripped (confidence 10) [7540DB4A] (AR v2)
Track 3 accurately ripped (confidence 10) [0790D7F2] (AR v2)
Track 4 accurately ripped (confidence 10) [67301541] (AR v2)
Track 5 accurately ripped (confidence 10) [4487927E] (AR v2)
Track 6 accurately ripped (confidence 10) [88E73FB2] (AR v2)
Track 7 accurately ripped (confidence 10) [87409B56] (AR v2)
Track 8 accurately ripped (confidence 10) [F02C82F9] (AR v2)
Track 9 accurately ripped (confidence 10) [A39CF11C] (AR v2)
Track 10 accurately ripped (confidence 10) [787C3D8B] (AR v2)
Track 11 accurately ripped (confidence 10) [8734B831] (AR v2)
Track 12 accurately ripped (confidence 10) [353435BF] (AR v2)
Track 13 accurately ripped (confidence 10) [FC716B32] (AR v2)
Track 14 accurately ripped (confidence 10) [1BFA0D0B] (AR v2)
Track 15 accurately ripped (confidence 10) [AF8B9EB3] (AR v2)
Track 16 accurately ripped (confidence 10) [B612097E] (AR v2)
Track 17 accurately ripped (confidence 10) [D94E4AD9] (AR v2)
Track 18 accurately ripped (confidence 10) [4E25CFC0] (AR v2)
Track 19 accurately ripped (confidence 10) [801005DF] (AR v2)

All tracks accurately ripped

End of status report

–– CUETools DB Plugin V2.1.6

[CTDB TOCID: egSYupW1UELUQk9L8QncaK6qzBw-] found
Submit result: egSYupW1UELUQk9L8QncaK6qzBw- has been confirmed
Track | CTDB Status
1 | (22/22) Accurately ripped
2 | (22/22) Accurately ripped
3 | (22/22) Accurately ripped
4 | (22/22) Accurately ripped
5 | (22/22) Accurately ripped
6 | (22/22) Accurately ripped
7 | (22/22) Accurately ripped
8 | (22/22) Accurately ripped
9 | (22/22) Accurately ripped
10 | (22/22) Accurately ripped
11 | (22/22) Accurately ripped
12 | (22/22) Accurately ripped
13 | (22/22) Accurately ripped
14 | (22/22) Accurately ripped
15 | (22/22) Accurately ripped
16 | (22/22) Accurately ripped
17 | (22/22) Accurately ripped
18 | (22/22) Accurately ripped
19 | (22/22) Accurately ripped


==== Log checksum E9D41A9A76BC13A7B25A2D576264B4661195231A80399096C487D86563CCDA0A ====


Exact Audio Copy V1.5 from 20. February 2020

EAC extraction logfile from 20. August 2020, 1:55

Lawes (Music for Viols CD2) - Fretwork / Music for Viols

Used drive : HL-DT-STDVDRAM GH24NSB0 Adapter: 1 ID: 0

Read mode : Secure
Utilize accurate stream : Yes
Defeat audio cache : Yes
Make use of C2 pointers : No

Read offset correction : 6
Overread into Lead-In and Lead-Out : No
Fill up missing offset samples with silence : Yes
Delete leading and trailing silent blocks : No
Null samples used in CRC calculations : Yes
Used interface : Native Win32 interface for Win NT & 2000

Used output format : User Defined Encoder
Selected bitrate : 128 kBit/s
Quality : High
Add ID3 tag : No
Command line compressor : C:\Program Files (x86)\Exact Audio Copy\Flac\flac.exe
Additional command line options : -8 -V %source%


TOC of the extracted CD

Track | Start | Length | Start sector | End sector
––––––––––––––––––––––––––––-
1 | 0:00.00 | 4:57.52 | 0 | 22326
2 | 4:57.52 | 2:30.25 | 22327 | 33601
3 | 7:28.02 | 2:58.38 | 33602 | 46989
4 | 10:26.40 | 1:26.12 | 46990 | 53451
5 | 11:52.52 | 3:54.20 | 53452 | 71021
6 | 15:46.72 | 2:45.15 | 71022 | 83411
7 | 18:32.12 | 1:42.28 | 83412 | 91089
8 | 20:14.40 | 1:15.57 | 91090 | 96771
9 | 21:30.22 | 1:06.35 | 96772 | 101756
10 | 22:36.57 | 2:23.30 | 101757 | 112511
11 | 25:00.12 | 4:57.03 | 112512 | 134789
12 | 29:57.15 | 2:26.20 | 134790 | 145759
13 | 32:23.35 | 2:49.70 | 145760 | 158504
14 | 35:13.30 | 6:12.67 | 158505 | 186471
15 | 41:26.22 | 2:06.58 | 186472 | 195979
16 | 43:33.05 | 4:51.72 | 195980 | 217876
17 | 48:25.02 | 2:42.30 | 217877 | 230056
18 | 51:07.32 | 3:26.38 | 230057 | 245544
19 | 54:33.70 | 3:30.62 | 245545 | 261356
20 | 58:04.57 | 4:38.10 | 261357 | 282216
21 | 62:42.67 | 2:59.65 | 282217 | 295706


Range status and errors

Selected range

Filename C:\Work directories\Rips\Lawes (Music for Viols CD2) - Music for Viols - Fretwork.wav

Peak level 76.4 %
Extraction speed 1.8 X
Range quality 100.0 %
Copy CRC F8FC3137
Copy OK

No errors occurred


AccurateRip summary

Track 1 accurately ripped (confidence 6) [FA356FFF] (AR v2)
Track 2 accurately ripped (confidence 6) [554908A9] (AR v2)
Track 3 accurately ripped (confidence 6) [66B9992A] (AR v2)
Track 4 accurately ripped (confidence 6) [F78B24C8] (AR v2)
Track 5 accurately ripped (confidence 6) [FA9F1845] (AR v2)
Track 6 accurately ripped (confidence 6) [E1DB3AF5] (AR v2)
Track 7 accurately ripped (confidence 6) [E9945F9F] (AR v2)
Track 8 accurately ripped (confidence 6) [88E4D897] (AR v2)
Track 9 accurately ripped (confidence 6) [3FF8C38D] (AR v2)
Track 10 accurately ripped (confidence 6) [FA7B8209] (AR v2)
Track 11 accurately ripped (confidence 6) [BB01F428] (AR v2)
Track 12 accurately ripped (confidence 6) [7032FB33] (AR v2)
Track 13 accurately ripped (confidence 6) [30243B3B] (AR v2)
Track 14 accurately ripped (confidence 6) [D99040D3] (AR v2)
Track 15 accurately ripped (confidence 6) [11203477] (AR v2)
Track 16 accurately ripped (confidence 6) [5B3CE025] (AR v2)
Track 17 accurately ripped (confidence 6) [1B00AFDC] (AR v2)
Track 18 accurately ripped (confidence 6) [450E10C1] (AR v2)
Track 19 accurately ripped (confidence 6) [2026AA44] (AR v2)
Track 20 accurately ripped (confidence 6) [D20A0ED5] (AR v2)
Track 21 accurately ripped (confidence 6) [7253FC5A] (AR v2)

All tracks accurately ripped

End of status report

–– CUETools DB Plugin V2.1.6

[CTDB TOCID: PVlsgp5BBnbbkOqjvOMSIjrolMg-] found
Submit result: PVlsgp5BBnbbkOqjvOMSIjrolMg- has been confirmed
Track | CTDB Status
1 | (32/32) Accurately ripped
2 | (32/32) Accurately ripped
3 | (32/32) Accurately ripped
4 | (32/32) Accurately ripped
5 | (32/32) Accurately ripped
6 | (32/32) Accurately ripped
7 | (32/32) Accurately ripped
8 | (32/32) Accurately ripped
9 | (32/32) Accurately ripped
10 | (32/32) Accurately ripped
11 | (32/32) Accurately ripped
12 | (32/32) Accurately ripped
13 | (32/32) Accurately ripped
14 | (32/32) Accurately ripped
15 | (32/32) Accurately ripped
16 | (32/32) Accurately ripped
17 | (32/32) Accurately ripped
18 | (32/32) Accurately ripped
19 | (32/32) Accurately ripped
20 | (32/32) Accurately ripped
21 | (32/32) Accurately ripped


==== Log checksum EBABDB8A28E5EE1A0172B19EB62215A1592EFD3774235A503FAE66633C8ABB08 ====


Exact Audio Copy V1.5 from 20. February 2020

EAC extraction logfile from 20. August 2020, 6:51

Lawes / Music for Viols CD 3

Used drive : HL-DT-STDVDRAM GH24NSB0 Adapter: 1 ID: 0

Read mode : Secure
Utilize accurate stream : Yes
Defeat audio cache : Yes
Make use of C2 pointers : No

Read offset correction : 6
Overread into Lead-In and Lead-Out : No
Fill up missing offset samples with silence : Yes
Delete leading and trailing silent blocks : No
Null samples used in CRC calculations : Yes
Used interface : Native Win32 interface for Win NT & 2000

Used output format : User Defined Encoder
Selected bitrate : 128 kBit/s
Quality : High
Add ID3 tag : No
Command line compressor : C:\Program Files (x86)\Exact Audio Copy\Flac\flac.exe
Additional command line options : -8 -V %source%


TOC of the extracted CD

Track | Start | Length | Start sector | End sector
––––––––––––––––––––––––––––-
1 | 0:00.00 | 7:05.67 | 0 | 31941
2 | 7:05.67 | 3:29.38 | 31942 | 47654
3 | 10:35.30 | 2:23.27 | 47655 | 58406
4 | 12:58.57 | 3:15.63 | 58407 | 73094
5 | 16:14.45 | 1:30.62 | 73095 | 79906
6 | 17:45.32 | 6:37.58 | 79907 | 109739
7 | 24:23.15 | 1:31.72 | 109740 | 116636
8 | 25:55.12 | 2:35.68 | 116637 | 128329
9 | 28:31.05 | 1:19.55 | 128330 | 134309
10 | 29:50.60 | 1:05.10 | 134310 | 139194
11 | 30:55.70 | 3:36.22 | 139195 | 155416
12 | 34:32.17 | 3:07.55 | 155417 | 169496
13 | 37:39.72 | 3:28.10 | 169497 | 185106
14 | 41:08.07 | 3:09.18 | 185107 | 199299
15 | 44:17.25 | 3:43.35 | 199300 | 216059
16 | 48:00.60 | 1:29.30 | 216060 | 222764
17 | 49:30.15 | 2:15.60 | 222765 | 232949
18 | 51:46.00 | 1:51.65 | 232950 | 241339
19 | 53:37.65 | 4:17.25 | 241340 | 260639
20 | 57:55.15 | 2:28.52 | 260640 | 271791
21 | 60:23.67 | 3:58.30 | 271792 | 289671


Range status and errors

Selected range

Filename C:\Work directories\Rips\Lawes (Music for Viols CD3) - Fretwork.wav

Peak level 74.0 %
Extraction speed 1.8 X
Range quality 100.0 %
Copy CRC BAC95442
Copy OK

No errors occurred


AccurateRip summary

Track 1 accurately ripped (confidence 7) [81CE80FA] (AR v2)
Track 2 accurately ripped (confidence 7) [BBBE719C] (AR v2)
Track 3 accurately ripped (confidence 7) [1063F74F] (AR v2)
Track 4 accurately ripped (confidence 7) [FC9A6D5F] (AR v2)
Track 5 accurately ripped (confidence 7) [F0AA9B2C] (AR v2)
Track 6 accurately ripped (confidence 7) [77DFBCA0] (AR v2)
Track 7 accurately ripped (confidence 7) [95B943A3] (AR v2)
Track 8 accurately ripped (confidence 7) [F0E016D3] (AR v2)
Track 9 accurately ripped (confidence 7) [92C9407E] (AR v2)
Track 10 accurately ripped (confidence 7) [38894385] (AR v2)
Track 11 accurately ripped (confidence 7) [9B0EF119] (AR v2)
Track 12 accurately ripped (confidence 7) [FBBC1EB4] (AR v2)
Track 13 accurately ripped (confidence 7) [B807A4A0] (AR v2)
Track 14 accurately ripped (confidence 7) [ADB8F16D] (AR v2)
Track 15 accurately ripped (confidence 7) [EE4E894F] (AR v2)
Track 16 accurately ripped (confidence 7) [DB9A2EBB] (AR v2)
Track 17 accurately ripped (confidence 7) [BCEDF866] (AR v2)
Track 18 accurately ripped (confidence 7) [74A968ED] (AR v2)
Track 19 accurately ripped (confidence 7) [2BE135FE] (AR v2)
Track 20 accurately ripped (confidence 7) [EF348DEF] (AR v2)
Track 21 accurately ripped (confidence 7) [5D435E41] (AR v2)

All tracks accurately ripped

End of status report

–– CUETools DB Plugin V2.1.6

[CTDB TOCID: BL9ceXEfaPuwfuGRi9cbcTB8nNE-] found
Submit result: BL9ceXEfaPuwfuGRi9cbcTB8nNE- has been confirmed
Track | CTDB Status
1 | (30/30) Accurately ripped
2 | (30/30) Accurately ripped
3 | (30/30) Accurately ripped
4 | (30/30) Accurately ripped
5 | (30/30) Accurately ripped
6 | (30/30) Accurately ripped
7 | (30/30) Accurately ripped
8 | (30/30) Accurately ripped
9 | (30/30) Accurately ripped
10 | (30/30) Accurately ripped
11 | (30/30) Accurately ripped
12 | (30/30) Accurately ripped
13 | (30/30) Accurately ripped
14 | (30/30) Accurately ripped
15 | (30/30) Accurately ripped
16 | (30/30) Accurately ripped
17 | (30/30) Accurately ripped
18 | (30/30) Accurately ripped
19 | (30/30) Accurately ripped
20 | (30/30) Accurately ripped
21 | (28/30) Accurately ripped


==== Log checksum BD1F91E0550623C12D2DE697500EBD8D28834BFAF766C7ED4B3699E3825F67FE ====


Exact Audio Copy V1.5 from 20. February 2020

EAC extraction logfile from 20. August 2020, 8:48

Locke / Music for Viols CD 4

Used drive : HL-DT-STDVDRAM GH24NSB0 Adapter: 1 ID: 0

Read mode : Secure
Utilize accurate stream : Yes
Defeat audio cache : Yes
Make use of C2 pointers : No

Read offset correction : 6
Overread into Lead-In and Lead-Out : No
Fill up missing offset samples with silence : Yes
Delete leading and trailing silent blocks : No
Null samples used in CRC calculations : Yes
Used interface : Native Win32 interface for Win NT & 2000

Used output format : User Defined Encoder
Selected bitrate : 128 kBit/s
Quality : High
Add ID3 tag : No
Command line compressor : C:\Program Files (x86)\Exact Audio Copy\Flac\flac.exe
Additional command line options : -8 -V %source%


TOC of the extracted CD

Track | Start | Length | Start sector | End sector
––––––––––––––––––––––––––––-
1 | 0:00.00 | 4:36.50 | 0 | 20749
2 | 4:36.50 | 1:25.52 | 20750 | 27176
3 | 6:02.27 | 2:32.53 | 27177 | 38629
4 | 8:35.05 | 1:13.35 | 38630 | 44139
5 | 9:48.40 | 3:13.57 | 44140 | 58671
6 | 13:02.22 | 1:02.25 | 58672 | 63346
7 | 14:04.47 | 2:02.00 | 63347 | 72496
8 | 16:06.47 | 1:27.08 | 72497 | 79029
9 | 17:33.55 | 1:32.42 | 79030 | 85971
10 | 19:06.22 | 1:30.05 | 85972 | 92726
11 | 20:36.27 | 1:32.53 | 92727 | 99679
12 | 22:09.05 | 1:21.37 | 99680 | 105791
13 | 23:30.42 | 1:32.10 | 105792 | 112701
14 | 25:02.52 | 0:50.45 | 112702 | 116496
15 | 25:53.22 | 4:11.00 | 116497 | 135321
16 | 30:04.22 | 1:30.18 | 135322 | 142089
17 | 31:34.40 | 1:28.10 | 142090 | 148699
18 | 33:02.50 | 0:59.45 | 148700 | 153169
19 | 34:02.20 | 2:54.45 | 153170 | 166264
20 | 36:56.65 | 1:20.07 | 166265 | 172271
21 | 38:16.72 | 1:59.30 | 172272 | 181226
22 | 40:16.27 | 1:14.55 | 181227 | 186831
23 | 41:31.07 | 1:32.73 | 186832 | 193804
24 | 43:04.05 | 1:12.20 | 193805 | 199224
25 | 44:16.25 | 1:32.42 | 199225 | 206166
26 | 45:48.67 | 1:26.05 | 206167 | 212621
27 | 47:14.72 | 1:30.10 | 212622 | 219381
28 | 48:45.07 | 1:11.13 | 219382 | 224719
29 | 49:56.20 | 4:44.62 | 224720 | 246081
30 | 54:41.07 | 1:18.13 | 246082 | 251944
31 | 55:59.20 | 1:33.20 | 251945 | 258939
32 | 57:32.40 | 1:00.47 | 258940 | 263486
33 | 58:33.12 | 3:41.55 | 263487 | 280116
34 | 62:14.67 | 1:17.60 | 280117 | 285951
35 | 63:32.52 | 2:15.23 | 285952 | 296099
36 | 65:48.00 | 1:24.00 | 296100 | 302399


Range status and errors

Selected range

Filename C:\Work directories\Rips\Locke (Music for Viols CD4) - Fretwork.wav

Peak level 72.1 %
Extraction speed 1.8 X
Range quality 100.0 %
Copy CRC 372A4312
Copy OK

No errors occurred


AccurateRip summary

Track 1 accurately ripped (confidence 7) [1FD72CD1] (AR v2)
Track 2 accurately ripped (confidence 7) [0413C1C9] (AR v2)
Track 3 accurately ripped (confidence 7) [C85857B3] (AR v2)
Track 4 accurately ripped (confidence 7) [A142C5F0] (AR v2)
Track 5 accurately ripped (confidence 7) [5717EE5B] (AR v2)
Track 6 accurately ripped (confidence 7) [3FB42BE6] (AR v2)
Track 7 accurately ripped (confidence 7) [90F5018E] (AR v2)
Track 8 accurately ripped (confidence 7) [2D5B5E75] (AR v2)
Track 9 accurately ripped (confidence 7) [D09383AA] (AR v2)
Track 10 accurately ripped (confidence 7) [07FAC361] (AR v2)
Track 11 accurately ripped (confidence 7) [5BBD1DB5] (AR v2)
Track 12 accurately ripped (confidence 7) [4885B173] (AR v2)
Track 13 accurately ripped (confidence 7) [3B64CE59] (AR v2)
Track 14 accurately ripped (confidence 7) [2ADE6DC3] (AR v2)
Track 15 accurately ripped (confidence 7) [5F504201] (AR v2)
Track 16 accurately ripped (confidence 7) [6C44D16D] (AR v2)
Track 17 accurately ripped (confidence 7) [60C22593] (AR v2)
Track 18 accurately ripped (confidence 7) [27682CB6] (AR v2)
Track 19 accurately ripped (confidence 7) [10C7BD2A] (AR v2)
Track 20 accurately ripped (confidence 7) [AD040441] (AR v2)
Track 21 accurately ripped (confidence 7) [B1458DE1] (AR v2)
Track 22 accurately ripped (confidence 7) [2A9A506D] (AR v2)
Track 23 accurately ripped (confidence 7) [399B1F7A] (AR v2)
Track 24 accurately ripped (confidence 7) [D922919D] (AR v2)
Track 25 accurately ripped (confidence 7) [4A468E10] (AR v2)
Track 26 accurately ripped (confidence 7) [825134F8] (AR v2)
Track 27 accurately ripped (confidence 7) [62B3E1CC] (AR v2)
Track 28 accurately ripped (confidence 7) [4DE3DDA7] (AR v2)
Track 29 accurately ripped (confidence 7) [3FE14A66] (AR v2)
Track 30 accurately ripped (confidence 7) [7CE876A2] (AR v2)
Track 31 accurately ripped (confidence 7) [1B5C4D5B] (AR v2)
Track 32 accurately ripped (confidence 7) [21A771DB] (AR v2)
Track 33 accurately ripped (confidence 7) [8E005A15] (AR v2)
Track 34 accurately ripped (confidence 7) [16E398BB] (AR v2)
Track 35 accurately ripped (confidence 7) [89C0C2B3] (AR v2)
Track 36 accurately ripped (confidence 6) [4E24165E] (AR v2)

All tracks accurately ripped

End of status report

–– CUETools DB Plugin V2.1.6

[CTDB TOCID: AaxHZkw5JxhelpqokXEhHmSQzi8-] found
Submit result: AaxHZkw5JxhelpqokXEhHmSQzi8- has been confirmed
Track | CTDB Status
1 | (18/18) Accurately ripped
2 | (18/18) Accurately ripped
3 | (18/18) Accurately ripped
4 | (18/18) Accurately ripped
5 | (18/18) Accurately ripped
6 | (18/18) Accurately ripped
7 | (18/18) Accurately ripped
8 | (18/18) Accurately ripped
9 | (18/18) Accurately ripped
10 | (18/18) Accurately ripped
11 | (18/18) Accurately ripped
12 | (18/18) Accurately ripped
13 | (18/18) Accurately ripped
14 | (18/18) Accurately ripped
15 | (18/18) Accurately ripped
16 | (18/18) Accurately ripped
17 | (18/18) Accurately ripped
18 | (18/18) Accurately ripped
19 | (18/18) Accurately ripped
20 | (18/18) Accurately ripped
21 | (18/18) Accurately ripped
22 | (18/18) Accurately ripped
23 | (18/18) Accurately ripped
24 | (18/18) Accurately ripped
25 | (18/18) Accurately ripped
26 | (18/18) Accurately ripped
27 | (18/18) Accurately ripped
28 | (18/18) Accurately ripped
29 | (18/18) Accurately ripped
30 | (18/18) Accurately ripped
31 | (18/18) Accurately ripped
32 | (18/18) Accurately ripped
33 | (18/18) Accurately ripped
34 | (18/18) Accurately ripped
35 | (18/18) Accurately ripped
36 | (18/18) Accurately ripped


==== Log checksum 99437EA5FC36F14202989600603DCF5A73DDF395571102142C7500FB7CC7CC4F ====


Exact Audio Copy V1.5 from 20. February 2020

EAC extraction logfile from 20. August 2020, 17:18

Purcell / Purcell (Music for Viols CD5)

Used drive : HL-DT-STDVDRAM GH24NSB0 Adapter: 1 ID: 0

Read mode : Secure
Utilize accurate stream : Yes
Defeat audio cache : Yes
Make use of C2 pointers : No

Read offset correction : 6
Overread into Lead-In and Lead-Out : No
Fill up missing offset samples with silence : Yes
Delete leading and trailing silent blocks : No
Null samples used in CRC calculations : Yes
Used interface : Native Win32 interface for Win NT & 2000

Used output format : User Defined Encoder
Selected bitrate : 128 kBit/s
Quality : High
Add ID3 tag : No
Command line compressor : C:\Program Files (x86)\Exact Audio Copy\Flac\flac.exe
Additional command line options : -8 -V %source%


TOC of the extracted CD

Track | Start | Length | Start sector | End sector
––––––––––––––––––––––––––––-
1 | 0:00.00 | 3:51.70 | 0 | 17394
2 | 3:51.70 | 4:12.32 | 17395 | 36326
3 | 8:04.27 | 3:43.40 | 36327 | 53091
4 | 11:47.67 | 4:15.08 | 53092 | 72224
5 | 16:03.00 | 3:52.72 | 72225 | 89696
6 | 19:55.72 | 4:17.25 | 89697 | 108996
7 | 24:13.22 | 3:59.43 | 108997 | 126964
8 | 28:12.65 | 3:01.72 | 126965 | 140611
9 | 31:14.62 | 3:29.53 | 140612 | 156339
10 | 34:44.40 | 2:56.37 | 156340 | 169576
11 | 37:41.02 | 3:31.58 | 169577 | 185459
12 | 41:12.60 | 2:36.35 | 185460 | 197194
13 | 43:49.20 | 1:23.57 | 197195 | 203476
14 | 45:13.02 | 3:05.08 | 203477 | 217359
15 | 48:18.10 | 2:21.57 | 217360 | 227991
16 | 50:39.67 | 4:12.45 | 227992 | 246936


Range status and errors

Selected range

Filename C:\Work directories\Rips\Purcell (Music for Viols CD5) - Fretwork.wav

Peak level 99.9 %
Extraction speed 1.7 X
Range quality 100.0 %
Copy CRC 94932C19
Copy OK

No errors occurred


AccurateRip summary

Track 1 accurately ripped (confidence 6) [69C48272] (AR v2)
Track 2 accurately ripped (confidence 7) [48A28BB6] (AR v2)
Track 3 accurately ripped (confidence 7) [908FA0B4] (AR v2)
Track 4 accurately ripped (confidence 7) [D3CDEABA] (AR v2)
Track 5 accurately ripped (confidence 7) [FC10878D] (AR v2)
Track 6 accurately ripped (confidence 7) [D45E06BA] (AR v2)
Track 7 accurately ripped (confidence 7) [81883021] (AR v2)
Track 8 accurately ripped (confidence 7) [42FD281D] (AR v2)
Track 9 accurately ripped (confidence 7) [3EFB4CD7] (AR v2)
Track 10 accurately ripped (confidence 7) [ECBC7511] (AR v2)
Track 11 accurately ripped (confidence 7) [C5680FB3] (AR v2)
Track 12 accurately ripped (confidence 7) [C1AB4B32] (AR v2)
Track 13 accurately ripped (confidence 7) [A9190B7A] (AR v2)
Track 14 accurately ripped (confidence 7) [4BC23681] (AR v2)
Track 15 accurately ripped (confidence 7) [BC5BBB6C] (AR v2)
Track 16 accurately ripped (confidence 7) [ADE2EFDE] (AR v2)

All tracks accurately ripped

End of status report

–– CUETools DB Plugin V2.1.6

[CTDB TOCID: CfKgPpnvclKpc6.XLSvKc84YkMI-] found
Submit result: already submitted
Track | CTDB Status
1 | (51/51) Accurately ripped
2 | (51/51) Accurately ripped
3 | (51/51) Accurately ripped
4 | (11/51) Accurately ripped, or (14/51) differs in 61 samples @02:29:55-02:29:56, or (8/51) differs in 162 samples @02:29:55-02:29:56, or (17/51) differs in 61 samples @02:29:55-02:29:56
5 | (51/51) Accurately ripped
6 | (51/51) Accurately ripped
7 | (50/51) Accurately ripped
8 | (51/51) Accurately ripped
9 | (51/51) Accurately ripped
10 | (51/51) Accurately ripped
11 | (51/51) Accurately ripped
12 | (51/51) Accurately ripped
13 | (37/51) Accurately ripped, or (14/51) differs in 1539 samples @00:02:35-00:02:41
14 | (51/51) Accurately ripped
15 | (51/51) Accurately ripped
16 | (51/51) Accurately ripped
If you are sure that your rip contains errors, you can use CUETools to repair it.


==== Log checksum B6AC343DF8F487372A7BC55C167A5999E2A2EFDCC8E35D9CE1C24938DF4D3648 ====

Fretwork - English Music for Viols: Jenkins, Lawes, Locke, Purcell [5CDs] (2008)

Thanks to the original releaser