Tags
Language
Tags

Thomas Fritzsch, Werner Matzke, Michael Schönheit - Carl Friedrich Abel: 2nd Pembroke Collection (2014)

Posted By: ArlegZ
Thomas Fritzsch, Werner Matzke, Michael Schönheit - Carl Friedrich Abel: 2nd Pembroke Collection (2014)

Thomas Fritzsch, Werner Matzke, Michael Schönheit - Carl Friedrich Abel: 2nd Pembroke Collection (2014)
EAC | FLAC | Image (Cue & Log) ~ 672 Mb | Total time: 55:33+60:11 | Scans included
Classical | Label: Coviello Classics | COV91411 | Recorded: 2014

The recently rediscovered, so-called Pembroke collection owned by the Abel-pupil Lady Elizabeth Herbert, Countess of Pembroke and Montgomery (1737-1831), contains 14 previously unknown viol works (ten sonatas and four duos for viola da gamba and cello) by Carl Friedrich Abel (1723-87), which he composed for himself and his talented pupil. Specifically, these expressive pieces are late works that show Abel’s special way of playing. For Coviello, viola da gambist Thomas Fritzsch presents the world premiere recording of these musical jewels.

Performer:
Thomas Fritzsch, viola da gamba
Michael Schönheit, pianoforte / harpsichord
Werner Matzke, violoncello

Track List:
CD1:
Viola da Gamba Sonata No. 5 in G Minor
01. I. Moderato
02. II. Adagio
03. III. Tempo di Menuet
Viola da Gamba Sonata No. 7 in B-Flat Major
04. I. Allegro
05. II. Adagio
06. III. Menuet
Viola da Gamba Sonata No. 10 in D Major
07. I. Moderato
08. II. Adagio
09. III. Menuet
Duetto for Viola da Gamba and Cello No. 12 in G Major
10. I. Un poco allegro
11. II. Andante
12. III. Tempo di Minuet
Viola da Gamba Sonata No. 4 in E-Flat Major
13. I. Vivace
14. II. Adagio
15. III. Menuet
Viola da Gamba Sonata No. 9 in G Major
16. I. Allegro
17. II. Adagio
18. III. Tempo di Menuetto
Duetto for Viola da Gamba and Cello No. 11 in G Major
19. I. Poco allegro
20. II. Un poco adagio
21. III. Rondeau: Allegretto
CD2:
Duetto for Viola da Gamba and Cello No. 1 in D Major
01. I. Allegro
02. II. Rondeau: Tempo di Menuet
Viola da Gamba Sonata No. 14 in A Major
03. I. Moderato
04. II. Adagio
05. III. Tempo di Menuet
Viola da Gamba Sonata No. 3 in E Major
06. I. Moderato
07. II. Adagio
08.. III. Tempo di Menuet
Duetto for Viola da Gamba and Cello No. 2 in D Major
09. I. Allegro
10. II. Adagio
11. III. Tempo di Menuet
Viola da Gamba Sonata No. 6 in B-Flat Major
12. I. Vivace
13. II. Adagio
14. III. Tempo di Menuet
Viola da Gamba Sonata No. 8 in F Major
15. I. Moderato
16. II. Adagio
17. III. Menuet
Viola da Gamba Sonata No. 13 in D Major
18. I. Allegro
19. II. Adagio
20. III. Allegretto
21. Letter to Henry Bate


Exact Audio Copy V1.5 from 20. February 2020

EAC extraction logfile from 25. February 2020, 14:04

Thomas Fritzsch, Michael Schönheit, Werner Matzke / Abel - 2nd Pembroke Collection

Used drive : HL-DT-STBD-RE WH16NS40 Adapter: 1 ID: 0

Read mode : Secure
Utilize accurate stream : Yes
Defeat audio cache : Yes
Make use of C2 pointers : No

Read offset correction : 6
Overread into Lead-In and Lead-Out : No
Fill up missing offset samples with silence : Yes
Delete leading and trailing silent blocks : No
Null samples used in CRC calculations : Yes
Used interface : Native Win32 interface for Win NT & 2000

Used output format : User Defined Encoder
Selected bitrate : 1024 kBit/s
Quality : High
Add ID3 tag : No
Command line compressor : C:\Program Files (x86)\Exact Audio Copy\FLAC\FLAC.EXE
Additional command line options : -6 -V -T "ARTIST=%artist%" -T "TITLE=%title%" -T "ALBUM=%albumtitle%" -T "DATE=%year%" -T "TRACKNUMBER=%tracknr%" -T "GENRE=%genre%" -T "COMMENT=%comment%" -T "BAND=%albuminterpret%" -T "ALBUMARTIST=%albuminterpret%" -T "COMPOSER=%composer%" %haslyrics%–tag-from-file=LYRICS="%lyricsfile%"%haslyrics% -T "DISCNUMBER=%cdnumber%" -T "TOTALDISCS=%totalcds%" -T "TOTALTRACKS=%numtracks%" %hascover%–picture="%coverfile%"%hascover% %source% -o %dest%


TOC of the extracted CD

Track | Start | Length | Start sector | End sector
––––––––––––––––––––––––––––-
1 | 0:00.00 | 3:48.39 | 0 | 17138
2 | 3:48.39 | 2:13.07 | 17139 | 27120
3 | 6:01.46 | 2:10.38 | 27121 | 36908
4 | 8:12.09 | 3:22.07 | 36909 | 52065
5 | 11:34.16 | 1:33.33 | 52066 | 59073
6 | 13:07.49 | 2:04.36 | 59074 | 68409
7 | 15:12.10 | 3:11.58 | 68410 | 82792
8 | 18:23.68 | 2:22.63 | 82793 | 93505
9 | 20:46.56 | 2:15.17 | 93506 | 103647
10 | 23:01.73 | 3:38.02 | 103648 | 119999
11 | 26:40.00 | 1:44.63 | 120000 | 127862
12 | 28:24.63 | 2:04.05 | 127863 | 137167
13 | 30:28.68 | 3:08.00 | 137168 | 151267
14 | 33:36.68 | 1:26.06 | 151268 | 157723
15 | 35:02.74 | 2:17.35 | 157724 | 168033
16 | 37:20.34 | 3:13.60 | 168034 | 182568
17 | 40:34.19 | 1:43.26 | 182569 | 190319
18 | 42:17.45 | 2:13.47 | 190320 | 200341
19 | 44:31.17 | 5:00.11 | 200342 | 222852
20 | 49:31.28 | 3:18.30 | 222853 | 237732
21 | 52:49.58 | 2:44.09 | 237733 | 250041


Range status and errors

Selected range

Filename C:\Users\Grant\Desktop\Thomas Fritzsch, Michael Schönheit, Werner Matzke - Abel - 2nd Pembroke Collection.wav

Peak level 81.2 %
Extraction speed 7.5 X
Range quality 100.0 %
Test CRC 05CF3F9C
Copy CRC 05CF3F9C
Copy OK

No errors occurred


AccurateRip summary

Track 1 accurately ripped (confidence 4) [B6A44693] (AR v2)
Track 2 accurately ripped (confidence 4) [3CB2260A] (AR v2)
Track 3 accurately ripped (confidence 4) [23DA6489] (AR v2)
Track 4 accurately ripped (confidence 4) [21048ECA] (AR v2)
Track 5 accurately ripped (confidence 4) [655D0728] (AR v2)
Track 6 accurately ripped (confidence 4) [DD8EDC3C] (AR v2)
Track 7 accurately ripped (confidence 4) [C3A8A593] (AR v2)
Track 8 accurately ripped (confidence 4) [20117E92] (AR v2)
Track 9 accurately ripped (confidence 4) [A558A6DC] (AR v2)
Track 10 accurately ripped (confidence 4) [3565C790] (AR v2)
Track 11 accurately ripped (confidence 4) [8BC1F7AE] (AR v2)
Track 12 accurately ripped (confidence 4) [8A98367B] (AR v2)
Track 13 accurately ripped (confidence 4) [162514E5] (AR v2)
Track 14 accurately ripped (confidence 4) [3FE1ECC7] (AR v2)
Track 15 accurately ripped (confidence 4) [E57CC801] (AR v2)
Track 16 accurately ripped (confidence 4) [DD5EDB02] (AR v2)
Track 17 accurately ripped (confidence 4) [1B84D031] (AR v2)
Track 18 accurately ripped (confidence 4) [3B9FBF14] (AR v2)
Track 19 accurately ripped (confidence 4) [BCE19A96] (AR v2)
Track 20 accurately ripped (confidence 4) [0CE91A1E] (AR v2)
Track 21 accurately ripped (confidence 4) [FEE8023F] (AR v2)

All tracks accurately ripped

End of status report

–– CUETools DB Plugin V2.1.6

[CTDB TOCID: HoRXDYbkdhgRTMf6Bxy4qP3MJeE-] found
Submit result: HoRXDYbkdhgRTMf6Bxy4qP3MJeE- has been confirmed
Track | CTDB Status
1 | (6/6) Accurately ripped
2 | (6/6) Accurately ripped
3 | (6/6) Accurately ripped
4 | (6/6) Accurately ripped
5 | (6/6) Accurately ripped
6 | (6/6) Accurately ripped
7 | (6/6) Accurately ripped
8 | (6/6) Accurately ripped
9 | (6/6) Accurately ripped
10 | (6/6) Accurately ripped
11 | (6/6) Accurately ripped
12 | (6/6) Accurately ripped
13 | (6/6) Accurately ripped
14 | (6/6) Accurately ripped
15 | (6/6) Accurately ripped
16 | (6/6) Accurately ripped
17 | (6/6) Accurately ripped
18 | (6/6) Accurately ripped
19 | (6/6) Accurately ripped
20 | (6/6) Accurately ripped
21 | (6/6) Accurately ripped


==== Log checksum 64833E3324FBC8053A5B00BD43B787E4CFDA4D5FA87EB28F0C29DE7A79D2F055 ====


Exact Audio Copy V1.5 from 20. February 2020

EAC extraction logfile from 25. February 2020, 14:35

Thomas Fritzsch / Abel - 2nd Pembroke Collection CD2

Used drive : HL-DT-STBD-RE WH16NS40 Adapter: 1 ID: 0

Read mode : Secure
Utilize accurate stream : Yes
Defeat audio cache : Yes
Make use of C2 pointers : No

Read offset correction : 6
Overread into Lead-In and Lead-Out : No
Fill up missing offset samples with silence : Yes
Delete leading and trailing silent blocks : No
Null samples used in CRC calculations : Yes
Used interface : Native Win32 interface for Win NT & 2000

Used output format : User Defined Encoder
Selected bitrate : 1024 kBit/s
Quality : High
Add ID3 tag : No
Command line compressor : C:\Program Files (x86)\Exact Audio Copy\FLAC\FLAC.EXE
Additional command line options : -6 -V -T "ARTIST=%artist%" -T "TITLE=%title%" -T "ALBUM=%albumtitle%" -T "DATE=%year%" -T "TRACKNUMBER=%tracknr%" -T "GENRE=%genre%" -T "COMMENT=%comment%" -T "BAND=%albuminterpret%" -T "ALBUMARTIST=%albuminterpret%" -T "COMPOSER=%composer%" %haslyrics%–tag-from-file=LYRICS="%lyricsfile%"%haslyrics% -T "DISCNUMBER=%cdnumber%" -T "TOTALDISCS=%totalcds%" -T "TOTALTRACKS=%numtracks%" %hascover%–picture="%coverfile%"%hascover% %source% -o %dest%


TOC of the extracted CD

Track | Start | Length | Start sector | End sector
––––––––––––––––––––––––––––-
1 | 0:00.00 | 6:03.21 | 0 | 27245
2 | 6:03.21 | 3:00.51 | 27246 | 40796
3 | 9:03.72 | 4:05.67 | 40797 | 59238
4 | 13:09.64 | 2:03.52 | 59239 | 68515
5 | 15:13.41 | 2:26.57 | 68516 | 79522
6 | 17:40.23 | 3:09.16 | 79523 | 93713
7 | 20:49.39 | 2:11.51 | 93714 | 103589
8 | 23:01.15 | 1:50.56 | 103590 | 111895
9 | 24:51.71 | 4:25.11 | 111896 | 131781
10 | 29:17.07 | 2:54.58 | 131782 | 144889
11 | 32:11.65 | 2:31.22 | 144890 | 156236
12 | 34:43.12 | 3:13.71 | 156237 | 170782
13 | 37:57.08 | 2:25.50 | 170783 | 181707
14 | 40:22.58 | 2:07.10 | 181708 | 191242
15 | 42:29.68 | 3:46.26 | 191243 | 208218
16 | 46:16.19 | 2:29.01 | 208219 | 219394
17 | 48:45.20 | 2:07.71 | 219395 | 228990
18 | 50:53.16 | 3:29.61 | 228991 | 244726
19 | 54:23.02 | 2:30.33 | 244727 | 256009
20 | 56:53.35 | 2:20.45 | 256010 | 266554
21 | 59:14.05 | 0:57.20 | 266555 | 270849


Range status and errors

Selected range

Filename C:\Users\Grant\Desktop\Thomas Fritzsch - Abel - 2nd Pembroke Collection CD2.wav

Peak level 91.6 %
Extraction speed 8.0 X
Range quality 100.0 %
Test CRC 8FB5EB39
Copy CRC 8FB5EB39
Copy OK

No errors occurred


AccurateRip summary

Track 1 accurately ripped (confidence 4) [0565EC60] (AR v2)
Track 2 accurately ripped (confidence 4) [13587EF6] (AR v2)
Track 3 accurately ripped (confidence 4) [FC220B7C] (AR v2)
Track 4 accurately ripped (confidence 4) [88A20CC0] (AR v2)
Track 5 accurately ripped (confidence 4) [A44ADD33] (AR v2)
Track 6 accurately ripped (confidence 4) [C171136C] (AR v2)
Track 7 accurately ripped (confidence 4) [CFDC5E84] (AR v2)
Track 8 accurately ripped (confidence 4) [68034DDA] (AR v2)
Track 9 accurately ripped (confidence 4) [A24363A3] (AR v2)
Track 10 accurately ripped (confidence 4) [10BDC27C] (AR v2)
Track 11 accurately ripped (confidence 4) [63D8F55A] (AR v2)
Track 12 accurately ripped (confidence 4) [4C48FAAD] (AR v2)
Track 13 accurately ripped (confidence 4) [22C71D15] (AR v2)
Track 14 accurately ripped (confidence 4) [07AA8AC1] (AR v2)
Track 15 accurately ripped (confidence 4) [AD22EFDC] (AR v2)
Track 16 accurately ripped (confidence 4) [F38F2C6D] (AR v2)
Track 17 accurately ripped (confidence 4) [68D1C590] (AR v2)
Track 18 accurately ripped (confidence 4) [93223C24] (AR v2)
Track 19 accurately ripped (confidence 4) [0A1DA72A] (AR v2)
Track 20 accurately ripped (confidence 4) [B68F5C43] (AR v2)
Track 21 accurately ripped (confidence 4) [E9DB1E4D] (AR v2)

All tracks accurately ripped

End of status report

–– CUETools DB Plugin V2.1.6

[CTDB TOCID: _gdl3kqtjmaxjQDRLZBAVjE22nw-] found
Submit result: _gdl3kqtjmaxjQDRLZBAVjE22nw- has been confirmed
Track | CTDB Status
1 | (6/6) Accurately ripped
2 | (6/6) Accurately ripped
3 | (6/6) Accurately ripped
4 | (6/6) Accurately ripped
5 | (6/6) Accurately ripped
6 | (6/6) Accurately ripped
7 | (6/6) Accurately ripped
8 | (6/6) Accurately ripped
9 | (6/6) Accurately ripped
10 | (6/6) Accurately ripped
11 | (6/6) Accurately ripped
12 | (6/6) Accurately ripped
13 | (6/6) Accurately ripped
14 | (6/6) Accurately ripped
15 | (6/6) Accurately ripped
16 | (6/6) Accurately ripped
17 | (6/6) Accurately ripped
18 | (6/6) Accurately ripped
19 | (6/6) Accurately ripped
20 | (6/6) Accurately ripped
21 | (6/6) Accurately ripped


==== Log checksum 3E2E0DA1B3F60EC529B4D70C98456C75046ACD709FA53B2932864083F7B68274 ====

Thomas Fritzsch, Werner Matzke, Michael Schönheit - Carl Friedrich Abel: 2nd Pembroke Collection (2014)

Thanks to the original releaser