Subcategories

Fruupp - Future Legends (1979) [Wasabi Records Japan, WSBAC-20]

Posted By: v3122
Fruupp - Future Legends (1979) [Wasabi Records Japan, WSBAC-20]

Fruupp - Future Legends (1979)
EAC | Flac(Image) + Cue + Log & MP3 CBR 320Kbps
2016 | Wasabi Records, WSBAC-20 | ~ 275 or 112 Mb | Scans(png) -> 138 Mb
Progressive Rock

A strong debut effort that, despite some searing guitar work by Vince McCusker and a well-placed howl by Peter Farelly in "Decision," remains a strangely low-key work. This may be due to the contemplative nature of Stephen Houston's keyboard and string parts. The erstwhile title tracks that bookend the album are instrumental throwaways, but several of the intervening numbers are impressive in their range and instrumental prowess. "Olde Tyme Future" is an ultimately hopeful elegy for an Irish homeland that seems unable to escape its own bitter past, alternating stark vocals and organ-driven instrumentals. "Song for Thought" uses the old progressive structure of spiraling fugues easing into slow blues on the verses, and it works wonderfully here.

by Paul Collins, AMG
Fruupp - Future Legends (1979) [Wasabi Records Japan, WSBAC-20]


Fruupp - Future Legends (1979):

Fruupp - Future Legends (1979) [Wasabi Records Japan, WSBAC-20]

Tracklist:

01 Future Legends
02 Decision
03 As Day Breaks With Dawn
04 Graveyard Epistle
05 Lord Of The Incubus
06 Olde Tyme Future
07 Song For A Thought
08 Future Legends

Bonus Track:
09 On A Clear Day

Exact Audio Copy V1.1 from 23. June 2015

EAC extraction logfile from 3. May 2016, 8:16

Fruupp / Future Legends Blu-spec

Used drive : PLEXTOR BD-R PX-B950SA Adapter: 1 ID: 1

Read mode : Secure
Utilize accurate stream : Yes
Defeat audio cache : Yes
Make use of C2 pointers : No

Read offset correction : 6
Overread into Lead-In and Lead-Out : No
Fill up missing offset samples with silence : Yes
Delete leading and trailing silent blocks : No
Null samples used in CRC calculations : Yes
Used interface : Native Win32 interface for Win NT & 2000

Used output format : Internal WAV Routines
Sample format : 44.100 Hz; 16 Bit; Stereo


TOC of the extracted CD

Track | Start | Length | Start sector | End sector
––––––––––––––––––––––––––––-
1 | 0:00.00 | 1:31.21 | 0 | 6845
2 | 1:31.21 | 6:24.73 | 6846 | 35718
3 | 7:56.19 | 5:00.29 | 35719 | 58247
4 | 12:56.48 | 6:14.47 | 58248 | 86344
5 | 19:11.20 | 6:25.24 | 86345 | 115243
6 | 25:36.44 | 5:35.66 | 115244 | 140434
7 | 31:12.35 | 7:30.26 | 140435 | 174210
8 | 38:42.61 | 0:54.14 | 174211 | 178274
9 | 39:37.00 | 7:48.67 | 178275 | 213441


Range status and errors

Selected range

Filename C:\Users\Meijin\Desktop\ALLexxess\Fruupp\1973 Future Legends (Mini LP Blu-spec CD Wasabi Japan 2016)\Fruupp - Future Legends Blu-spec.wav

Peak level 98.9 %
Extraction speed 6.8 X
Range quality 99.9 %
Test CRC 45B7525E
Copy CRC 45B7525E
Copy OK

No errors occurred


AccurateRip summary

Track 1 not present in database
Track 2 not present in database
Track 3 not present in database
Track 4 not present in database
Track 5 not present in database
Track 6 not present in database
Track 7 not present in database
Track 8 not present in database
Track 9 not present in database

None of the tracks are present in the AccurateRip database

End of status report

–– CUETools DB Plugin V2.1.6

[CTDB TOCID: a5krSznpy17faLFKC6swUXjhdLw-] disk not present in database
Submit result: a5krSznpy17faLFKC6swUXjhdLw- has been uploaded


==== Log checksum B73F1B7EB090A15B5BA935401E3C56A5207D6163A4BC828607EC0502A700ED8C ====

foobar2000 1.2.9 / Dynamic Range Meter 1.1.1
log date: 2016-05-06 10:10:51

––––––––––––––––––––––––––––––––––––––––
Analyzed: Fruupp / Future Legends Blu-spec
––––––––––––––––––––––––––––––––––––––––

DR Peak RMS Duration Track
––––––––––––––––––––––––––––––––––––––––
DR10 -3.66 dB -16.93 dB 1:31 01-Future Legends
DR9 -0.18 dB -11.03 dB 6:25 02-Decision
DR10 -0.09 dB -14.64 dB 5:00 03-As Day Breaks With Dawn
DR10 -0.11 dB -12.46 dB 6:15 04-Graveyard Epistle
DR10 -0.19 dB -11.70 dB 6:25 05-Lord Of The Incubus
DR10 -0.17 dB -13.10 dB 5:36 06-Olde Tyme Future
DR9 -0.16 dB -11.35 dB 7:30 07-Song For A Thought
DR11 -1.69 dB -16.03 dB 0:54 08-Future Legends
DR11 -0.18 dB -13.15 dB 7:49 09-On A Clear Day / Bonus Track
––––––––––––––––––––––––––––––––––––––––

Number of tracks: 9
Official DR value: DR10

Samplerate: 44100 Hz
Channels: 2
Bits per sample: 16
Bitrate: 785 kbps
Codec: FLAC

[CUETools log; Date: 06.05.2016 10:05:18; Version: 2.1.4]
[CTDB TOCID: a5krSznpy17faLFKC6swUXjhdLw-] found.
Track | CTDB Status
1 | (1/1) Accurately ripped
2 | (1/1) Accurately ripped
3 | (1/1) Accurately ripped
4 | (1/1) Accurately ripped
5 | (1/1) Accurately ripped
6 | (1/1) Accurately ripped
7 | (1/1) Accurately ripped
8 | (1/1) Accurately ripped
9 | (1/1) Accurately ripped
[AccurateRip ID: 000f647d-0073dad3-860b1d09] disk not present in database.

Track Peak [ CRC32 ] [W/O NULL] [ LOG ]
– 98,9 [45B7525E] [5B200479] CRC32
01 65,5 [C1982D95] [6B0195B5]
02 97,9 [B5FE1616] [EBDD5BC8]
03 98,9 [78CEA944] [D40ADB54]
04 98,7 [95B283D5] [8C1B3D36]
05 97,8 [EB010221] [26378E22]
06 98,0 [17F17D4C] [1336EE12]
07 98,1 [23CF9C12] [120FA296]
08 82,3 [578EA075] [0A574608]
09 97,9 [99E27460] [43E0747A]

Fruupp - Future Legends (1979) [Wasabi Records Japan, WSBAC-20]

All thanks go to ALLexxess

Fruupp in my Blog

Download Fruupp - Future Legends (1979):