Tags
Language
Tags

Fuchs - The Unity of Two (2014) (Re-up)

Posted By: gribovar
Fuchs - The Unity of Two (2014) (Re-up)

Fuchs - The Unity of Two (2014)
EAC Rip | FLAC (image+.cue+log) - 378 MB | MP3 CBR 320 kbps (LAME 3.93) - 151 MB | Covers - 56 MB
Genre: Progressive Rock | RAR 3% Rec. | Label: Tempus Fugit (TF VÖ 35)

Hans-Jürgen Fuchs, a multi-instrumentalist and producer from Stuttgart, Germany, has been involved in many different musical projects. In 2012 he recorded "Leaving Home", a concept album containing a lot of musical styles of the seventies (Peter Gabriel), the eighties (Simple Minds, U2, Martin Ansell) and the nineties (the late Kevin Gilbert). "The Unity Of Two", the 2014 album by Fuchs, is again a progressive rock concept album, this time telling the story of Aaron and Ray. Just like the book Narziss Und Goldmund, two characters from a book by the German author Herman Hesse, this story pulls at your heartstrings. It's dealing with friendship, devotion, the many layers of the human soul and different ways of life. In musical terms Fuchs has created his second album in a definitely more open and more varied style than on his debut album "Leaving Home". The music has been influenced again by forty years of prog rock. If you would like a comparison: it reminds of the Genesis album And Then There Were Three (1978), but then with Peter Gabriel, Phil Collins and Kevin Gilbert doing the vocals. The line-up of the record is almost similar to the first one. Again, Fuchs has gathered a lot of experienced Stuttgart based musicians. He could for instance dispose of drummer and engineer Florian Dittrich of the Ludwigsburg Film Academy. Andy Bartzik is, together with Fuchs, responsible for all guitar parts, with Bartzik performing almost all beautiful solo parts on The Unity Of Two.

Tracklist:
01. Prologue (Part 1)
02. Prologue (Part 2)
03. Are you with Me?
04. Under your Thumb
05. Just a Moment of a Perfect Summer
06. How Many Times?
07. Doubts
08. Your Best Maybe
09. Where do I Go?
10. I'm on my Knees
11. Back to Where we Belonged
12. When you Close your Eyes

Total time: 01:04:14

Exact Audio Copy V1.6 from 23. October 2020

EAC extraction logfile from 14. January 2021, 10:54

Fuchs / The unity of two

Used drive : ASUS DRW-24B1LT Adapter: 1 ID: 2

Read mode : Secure
Utilize accurate stream : Yes
Defeat audio cache : Yes
Make use of C2 pointers : No

Read offset correction : 6
Overread into Lead-In and Lead-Out : No
Fill up missing offset samples with silence : Yes
Delete leading and trailing silent blocks : No
Null samples used in CRC calculations : Yes
Used interface : Native Win32 interface for Win NT & 2000

Used output format : User Defined Encoder
Selected bitrate : 1024 kBit/s
Quality : High
Add ID3 tag : No
Command line compressor : C:\Program Files (x86)\FLAC_1.3.3\win64\flac.exe
Additional command line options : -6 -V -T "ARTIST=%artist%" -T "TITLE=%title%" -T "ALBUM=%albumtitle%" -T "DATE=%year%" -T "TRACKNUMBER=%tracknr%" -T "GENRE=%genre%" -T "COMMENT=ripped by wurensh for rutracker.org" %source% -o %dest%


TOC of the extracted CD

Track | Start | Length | Start sector | End sector
––––––––––––––––––––––––––––-
1 | 0:00.00 | 2:40.21 | 0 | 12020
2 | 2:40.21 | 10:19.53 | 12021 | 58498
3 | 12:59.74 | 5:28.22 | 58499 | 83120
4 | 18:28.21 | 4:36.55 | 83121 | 103875
5 | 23:05.01 | 5:09.20 | 103876 | 127070
6 | 28:14.21 | 6:20.06 | 127071 | 155576
7 | 34:34.27 | 2:27.38 | 155577 | 166639
8 | 37:01.65 | 2:30.14 | 166640 | 177903
9 | 39:32.04 | 3:52.08 | 177904 | 195311
10 | 43:24.12 | 6:38.44 | 195312 | 225205
11 | 50:02.56 | 5:57.58 | 225206 | 252038
12 | 56:00.39 | 8:13.55 | 252039 | 289068


Range status and errors

Selected range

Filename Y:\EAC\wurensh\Fuchs\Fuchs - The unity of two.wav

Peak level 99.9 %
Extraction speed 9.5 X
Range quality 100.0 %
Test CRC B2415496
Copy CRC B2415496
Copy OK

No errors occurred


AccurateRip summary

Track 1 accurately ripped (confidence 6) [2A936A6A] (AR v2)
Track 2 accurately ripped (confidence 5) [97FBB7FE] (AR v2)
Track 3 accurately ripped (confidence 5) [2F9D6A92] (AR v2)
Track 4 accurately ripped (confidence 6) [DC5CFA1E] (AR v2)
Track 5 accurately ripped (confidence 5) [41A2E135] (AR v2)
Track 6 accurately ripped (confidence 5) [B49F6B78] (AR v2)
Track 7 accurately ripped (confidence 6) [EA8D0F86] (AR v2)
Track 8 accurately ripped (confidence 5) [D9ADAA70] (AR v2)
Track 9 accurately ripped (confidence 5) [2754696C] (AR v2)
Track 10 accurately ripped (confidence 5) [49B966E6] (AR v2)
Track 11 accurately ripped (confidence 6) [B60EC47A] (AR v2)
Track 12 accurately ripped (confidence 6) [4C0F3151] (AR v2)

All tracks accurately ripped

End of status report

==== Log checksum 0AA5C0D4820B14A435474A1C92C0F3D5B2413F6516C80E42A4E8994F7EF8217C ====

[CUETools log; Date: 26.01.2022 21:30:24; Version: 2.1.4]
[CTDB TOCID: wMkmPDLlo10NVqq3nOebNOQmo3A-] found.
Track | CTDB Status
1 | (12/12) Accurately ripped
2 | (12/12) Accurately ripped
3 | (12/12) Accurately ripped
4 | (12/12) Accurately ripped
5 | (12/12) Accurately ripped
6 | (12/12) Accurately ripped
7 | (12/12) Accurately ripped
8 | (12/12) Accurately ripped
9 | (12/12) Accurately ripped
10 | (12/12) Accurately ripped
11 | (12/12) Accurately ripped
12 | (12/12) Accurately ripped
[AccurateRip ID: 001c2c3f-01042914-920f0e0c] found.
Track [ CRC | V2 ] Status
01 [bc447c2a|2a936a6a] (0+7/7) Accurately ripped
02 [a78c64c4|97fbb7fe] (0+6/6) Accurately ripped
03 [e97d76cd|2f9d6a92] (0+6/6) Accurately ripped
04 [bbcbf10d|dc5cfa1e] (0+7/7) Accurately ripped
05 [f214cb33|41a2e135] (0+6/6) Accurately ripped
06 [fb7f2aa6|b49f6b78] (0+6/6) Accurately ripped
07 [eb0aa67d|ea8d0f86] (0+7/7) Accurately ripped
08 [c43ae074|d9adaa70] (0+6/6) Accurately ripped
09 [bf5db564|2754696c] (0+6/6) Accurately ripped
10 [f25f9155|49b966e6] (0+6/6) Accurately ripped
11 [04a5988c|b60ec47a] (0+7/7) Accurately ripped
12 [2774283d|4c0f3151] (0+7/7) Accurately ripped

Track Peak [ CRC32 ] [W/O NULL] [ LOG ]
– 99,9 [B2415496] [F22E6D60] CRC32
01 76,7 [037C7CCA] [9C81C43F]
02 99,9 [911C4AAB] [89F058F7]
03 98,2 [60A28A8A] [71785BAE]
04 98,5 [B4FC5195] [45528F75]
05 99,3 [0BA71D86] [2168615A]
06 99,9 [E2205DC6] [44F42AB0]
07 97,4 [52792DCD] [C378091B]
08 91,4 [5772CC2E] [390D2936]
09 99,3 [93A756EE] [1E6F838C]
10 98,2 [A7FF2236] [A630E9E7]
11 98,4 [4D95A762] [6AD0E185]
12 99,0 [D71BB07A] [70031098]

Thanks to wurensh