Subcategories

guitar art festival – Belgrade Live 2007

Posted By: Ivan78
guitar art festival – Belgrade Live 2007

guitar art festival – Belgrade Live 2007
Instrumental | EAC, APE, CUE, LOG | 306 MB | 73'56

Performers:
Miroslav Tadić, Tommy Emmanuel, John Williams,
John Etheridge, Pepe Romero, Costas Cotsiolis
Göran Söllscher and others



The eight international Guitar festival
11–18 February 2007 · Belgrade · Serbia

All compositions were recorded live in The Kolarac Foundation Hall,
Sava Centre, National Museum Foyer, Madlenianum Opera and Theatre in Belgrade
from January 28th untill February 18th 2007 except compositions number 3, 4, 5 and 6.

SOKOJ CD 09
©2007 GAF

Exact Audio Copy V0.99 prebeta 4 from 23. January 2008

EAC extraction logfile from 13. March 2009, 9:12

Various / guitar art festival - Belgrade Live 2007

Used drive : PIONEER DVD-RW DVR-116D Adapter: 0 ID: 1

Read mode : Secure
Utilize accurate stream : Yes
Defeat audio cache : Yes
Make use of C2 pointers : No

Read offset correction : 48
Overread into Lead-In and Lead-Out : No
Fill up missing offset samples with silence : Yes
Delete leading and trailing silent blocks : No
Null samples used in CRC calculations : No
Used interface : Native Win32 interface for Win NT & 2000

Used output format : Monkey's Audio Lossless Encoder
Selected bitrate : High Lossless Compression
Quality : High
Add ID3 tag : No
Command line compressor : C:\Program Files\Monkey's Audio\MAC.exe


TOC of the extracted CD

Track | Start | Length | Start sector | End sector
––––––––––––––––––––––––––––-
1 | 0:00.00 | 3:49.02 | 0 | 17176
2 | 3:49.02 | 2:33.10 | 17177 | 28661
3 | 6:22.12 | 3:44.63 | 28662 | 45524
4 | 10:07.00 | 3:38.73 | 45525 | 61947
5 | 13:45.73 | 3:14.03 | 61948 | 76500
6 | 17:00.01 | 4:41.10 | 76501 | 97585
7 | 21:41.11 | 2:06.20 | 97586 | 107055
8 | 23:47.31 | 1:41.33 | 107056 | 114663
9 | 25:28.64 | 3:09.04 | 114664 | 128842
10 | 28:37.68 | 3:34.56 | 128843 | 144948
11 | 32:12.49 | 1:16.72 | 144949 | 150720
12 | 33:29.46 | 8:27.63 | 150721 | 188808
13 | 41:57.34 | 5:30.18 | 188809 | 213576
14 | 47:27.52 | 2:41.35 | 213577 | 225686
15 | 50:09.12 | 6:16.11 | 225687 | 253897
16 | 56:25.23 | 5:59.43 | 253898 | 280865
17 | 62:24.66 | 3:18.26 | 280866 | 295741
18 | 65:43.17 | 3:41.74 | 295742 | 312390
19 | 69:25.16 | 4:30.59 | 312391 | 332699


Range status and errors

Selected range

Filename E:\utorrent\1\Various - guitar art festival - Belgrade Live 2007.wav

Peak level 98.8 %
Range quality 100.0 %
Copy CRC 1977DBDF
Copy OK

No errors occurred

End of status report



Tracklist:

01 A što ti je mila kćeri (Serbian traditional), Miroslav Tadić & Teofilović Twins
02 Rosna livada (Serbian traditional), Miroslav Tadić & Teofilović Twins
03 Angelina (T. Emmanuel), Tommy Emmanuel
04 Mitopa (Rossy), John Williams & John Etheridge
05 Zig Zag (R. Aubry), René Aubry Ensemble
06 Fantasía cubana (C. Romero), Pepe Romero

La Cathedral (A. Barrios), Ana Vidović
07 Preludio Saudade
08 Andante Religioso
09 Allegro Solemne

10 Kapou yparxei i agapi mou (M. Hadjidakis), Costas Cotsiolis & Angelica Cathariou
11 The Colibri (J. Sagreras), Marco Tamayo
12 Capriccio Diabolico (M. C. Tedesco), Vojin Kocić

The fall of Birds (N. Koshkin) Viktor Ilić
13 Andante quassi passacaglia
14 Toccata

15 Fuga BWV 1001 (J. S. Bach), Srđan Bulatović
16 Second Sonata K. 213 (D. Scarlatti), Vladimir Gorbach
17 Gavotte en Rondeau BWV 1006 (J. S. Bach), Göran Söllscher
18 La miñona de cataluna (G. Sanz), The Ensemble Renesans
19 Skomraška igra & Devojačko kolo (Anonim/Ancient Serbia), The Ensemble Renesans