Tags
Language
Tags

Gravediggaz - Volume One (200x)

Posted By: TestTickles
Gravediggaz - Volume One (200x)

Gravediggaz - Volume One (200x)
EAC Rip | FLAC with CUE and log | scans | 440 mb
MP3 CBR 320kbps | RAR | 174 mb
Genre: hip-hop, rap

Volume One is an unofficial compilation of hip-hop group Gravediggaz, consisting of assorted material released in support of their debut album, 6 Feet Deep or Niggamortis. No release date is listed but it came out either in the late 1990's or the early 2000's.

01. Pass The Shovel (3:39)
02. Freak The Sorceress (3:57)
03. The Reincarnation Of Freud (1:19)
04. 1-800-SUICIDE (New Vocal Version) (3:44)
05. 1-800-SUICIDE (Poisonous Mix Edit) (3:58)
06. 1-800-SUICIDE (Guillotone Mix) (4:34)
07. 1-800-SUICIDE (Gangsta Mix) (4:17)
08. 1-800-SUICIDE (Dig Deep Mix) (3:52)
09. 1-800-SUICIDE (Flip Squad Mix) (3:53)
10. Mommy What's A Gravedigga (RZA Clean Mix) (4:09)
11. Mommy What's A Gravedigga (Uptight Cratedigga Mix) (3:42)
12. Mommy What's A Gravedigga (Prince Paul Mix) (4:11)
13. Bang Your Head (Underdog Alternative Mix) (4:37)
14. Bang Your Head (Basement Mix) (3:53)
15. Bang Your Head (Substantial Mix) (4:03)
16. Bang Your Head (94 Club Mix) (3:26)
17. Nowhere To Run Nowhere To Hide (Portishead Remix) (4:04)
18. Diary Of A Madman (No Courtroom) (4:06)
19. Michael Jackson Skit (1:28)

Exact Audio Copy V1.6 from 23. October 2020

EAC extraction logfile from 16. July 2021, 13:13

Gravediggaz / Volume One

Used drive : HL-DT-STDVD+-RW GT32N Adapter: 1 ID: 0

Read mode : Burst

Read offset correction : 103
Overread into Lead-In and Lead-Out : No
Fill up missing offset samples with silence : Yes
Delete leading and trailing silent blocks : No
Null samples used in CRC calculations : Yes
Used interface : Native Win32 interface for Win NT & 2000
Gap handling : Not detected, thus appended to previous track

Used output format : Internal WAV Routines
Sample format : 44.100 Hz; 16 Bit; Stereo


TOC of the extracted CD

Track | Start | Length | Start sector | End sector
––––––––––––––––––––––––––––-
1 | 0:37.67 | 3:39.19 | 2842 | 19285
2 | 4:17.11 | 3:57.26 | 19286 | 37086
3 | 8:14.37 | 1:19.72 | 37087 | 43083
4 | 9:34.34 | 3:44.52 | 43084 | 59935
5 | 13:19.11 | 3:58.04 | 59936 | 77789
6 | 17:17.15 | 4:34.19 | 77790 | 98358
7 | 21:51.34 | 4:17.69 | 98359 | 117702
8 | 26:09.28 | 3:52.50 | 117703 | 135152
9 | 30:02.03 | 3:53.36 | 135153 | 152663
10 | 33:55.39 | 4:09.65 | 152664 | 171403
11 | 38:05.29 | 3:42.43 | 171404 | 188096
12 | 41:47.72 | 4:11.14 | 188097 | 206935
13 | 45:59.11 | 4:37.62 | 206936 | 227772
14 | 50:36.73 | 3:53.41 | 227773 | 245288
15 | 54:30.39 | 4:03.04 | 245289 | 263517
16 | 58:33.43 | 3:26.13 | 263518 | 278980
17 | 61:59.56 | 4:04.15 | 278981 | 297295
18 | 66:03.71 | 4:06.44 | 297296 | 315789
19 | 70:10.40 | 1:28.06 | 315790 | 322395


Track 1

Filename C:\cuntfist\FLAC\Gravediggaz - Volume One (200x) [FLAC]\01 - Pass The Shovel.wav

Peak level 100.0 %
Extraction speed 9.8 X
Test CRC 8D506B35
Copy CRC 8D506B35
Track not present in AccurateRip database
Copy OK

Track 2

Filename C:\cuntfist\FLAC\Gravediggaz - Volume One (200x) [FLAC]\02 - Freak The Sorceress.wav

Peak level 81.8 %
Extraction speed 8.8 X
Test CRC BD834608
Copy CRC BD834608
Track not present in AccurateRip database
Copy OK

Track 3

Filename C:\cuntfist\FLAC\Gravediggaz - Volume One (200x) [FLAC]\03 - The Reincarnation Of Freud.wav

Peak level 79.9 %
Extraction speed 12.3 X
Test CRC 84F60D8F
Copy CRC 84F60D8F
Track not present in AccurateRip database
Copy OK

Track 4

Filename C:\cuntfist\FLAC\Gravediggaz - Volume One (200x) [FLAC]\04 - 1-800-SUICIDE (New Vocal Version).wav

Peak level 87.5 %
Extraction speed 13.3 X
Test CRC 4F79310C
Copy CRC 4F79310C
Track not present in AccurateRip database
Copy OK

Track 5

Filename C:\cuntfist\FLAC\Gravediggaz - Volume One (200x) [FLAC]\05 - 1-800-SUICIDE (Poisonous Mix Edit).wav

Peak level 96.9 %
Extraction speed 14.2 X
Test CRC 4F50E807
Copy CRC 4F50E807
Track not present in AccurateRip database
Copy OK

Track 6

Filename C:\cuntfist\FLAC\Gravediggaz - Volume One (200x) [FLAC]\06 - 1-800-SUICIDE (Guillotone Mix).wav

Peak level 90.4 %
Extraction speed 15.2 X
Test CRC 9B01A304
Copy CRC 9B01A304
Track not present in AccurateRip database
Copy OK

Track 7

Filename C:\cuntfist\FLAC\Gravediggaz - Volume One (200x) [FLAC]\07 - 1-800-SUICIDE (Gangsta Mix).wav

Peak level 86.5 %
Extraction speed 16.1 X
Test CRC C4089F27
Copy CRC C4089F27
Track not present in AccurateRip database
Copy OK

Track 8

Filename C:\cuntfist\FLAC\Gravediggaz - Volume One (200x) [FLAC]\08 - 1-800-SUICIDE (Dig Deep Mix).wav

Peak level 94.4 %
Extraction speed 16.8 X
Test CRC A9E8A270
Copy CRC A9E8A270
Track not present in AccurateRip database
Copy OK

Track 9

Filename C:\cuntfist\FLAC\Gravediggaz - Volume One (200x) [FLAC]\09 - 1-800-SUICIDE (Flip Squad Mix).wav

Peak level 85.7 %
Extraction speed 17.2 X
Test CRC 2852927A
Copy CRC 2852927A
Track not present in AccurateRip database
Copy OK

Track 10

Filename C:\cuntfist\FLAC\Gravediggaz - Volume One (200x) [FLAC]\10 - Mommy What's A Gravedigga (RZA Clean Mix).wav

Peak level 87.4 %
Extraction speed 18.2 X
Test CRC A98483E6
Copy CRC A98483E6
Track not present in AccurateRip database
Copy OK

Track 11

Filename C:\cuntfist\FLAC\Gravediggaz - Volume One (200x) [FLAC]\11 - Mommy What's A Gravedigga (Uptight Cratedigga Mix).wav

Peak level 87.1 %
Extraction speed 18.9 X
Test CRC 02D99302
Copy CRC 02D99302
Track not present in AccurateRip database
Copy OK

Track 12

Filename C:\cuntfist\FLAC\Gravediggaz - Volume One (200x) [FLAC]\12 - Mommy What's A Gravedigga (Prince Paul Mix).wav

Peak level 79.5 %
Extraction speed 19.6 X
Test CRC 6953E724
Copy CRC 6953E724
Track not present in AccurateRip database
Copy OK

Track 13

Filename C:\cuntfist\FLAC\Gravediggaz - Volume One (200x) [FLAC]\13 - Bang Your Head (Underdog Alternative Mix).wav

Peak level 100.0 %
Extraction speed 20.3 X
Test CRC 05028B6C
Copy CRC 05028B6C
Track not present in AccurateRip database
Copy OK

Track 14

Filename C:\cuntfist\FLAC\Gravediggaz - Volume One (200x) [FLAC]\14 - Bang Your Head (Basement Mix).wav

Peak level 99.0 %
Extraction speed 20.3 X
Test CRC A0BAE742
Copy CRC A0BAE742
Track not present in AccurateRip database
Copy OK

Track 15

Filename C:\cuntfist\FLAC\Gravediggaz - Volume One (200x) [FLAC]\15 - Bang Your Head (Substantial Mix).wav

Peak level 100.0 %
Extraction speed 21.5 X
Test CRC 0E297B12
Copy CRC 0E297B12
Track not present in AccurateRip database
Copy OK

Track 16

Filename C:\cuntfist\FLAC\Gravediggaz - Volume One (200x) [FLAC]\16 - Bang Your Head (94 Club Mix).wav

Peak level 100.0 %
Extraction speed 22.0 X
Test CRC 09A4856F
Copy CRC 09A4856F
Track not present in AccurateRip database
Copy OK

Track 17

Filename C:\cuntfist\FLAC\Gravediggaz - Volume One (200x) [FLAC]\17 - Nowhere To Run Nowhere To Hide (Portishead Remix).wav

Peak level 98.1 %
Extraction speed 22.6 X
Test CRC 25B99CF4
Copy CRC 25B99CF4
Track not present in AccurateRip database
Copy OK

Track 18

Filename C:\cuntfist\FLAC\Gravediggaz - Volume One (200x) [FLAC]\18 - Diary Of A Madman (No Courtroom).wav

Peak level 74.2 %
Extraction speed 23.1 X
Test CRC 8EC4630F
Copy CRC 8EC4630F
Track not present in AccurateRip database
Copy OK

Track 19

Filename C:\cuntfist\FLAC\Gravediggaz - Volume One (200x) [FLAC]\19 - Michael Jackson Skit.wav

Peak level 96.6 %
Extraction speed 23.1 X
Test CRC 36409B50
Copy CRC 36409B50
Track not present in AccurateRip database
Copy OK


None of the tracks are present in the AccurateRip database

No errors occurred

End of status report

–– CUETools DB Plugin V2.1.6

[CTDB TOCID: P6rLSfuOSJgWi_.32eDnaQ4pqME-] disk not present in database
Submit result: P6rLSfuOSJgWi_.32eDnaQ4pqME- has been uploaded


==== Log checksum 2CE39A4FB45FD1CA26460471CAF6920AD76ECCDCAEBC09CD39062C2E09590DEA ====


Gravediggaz - Volume One (200x)