Subcategories

Gabriel Yared, VA - Autumn in New York (Original Motion Picture Soundtrack) 2000

Posted By: Aregak
Gabriel Yared, VA - Autumn in New York (Original Motion Picture Soundtrack) 2000

Gabriel Yared, VA - Autumn in New York (Original Motion Picture Soundtrack) 2000
EAC Rip | FLAC, TRACKS+CUE, LOG, Covers | 00:58:39 | 362.81 MB
Score | Hollywood Records / 0122802HWR

Richard Gere is the aging romantic in love with the youthful Winona Ryder, except that while Gere is approaching the "autumn" of his life, Ryder's already there, suffering from a terminal disease. The heady situation has its grim moments, but the bittersweet mix of despair and euphoria is what much great art has always wrestled with. Here, it is presented sentimentally. The title track, arguably best performed by Lady Day, Billie Holiday, herself no stranger to life's troubles, is given a suitably smoky run-through by Yvonne Washington. Jennifer Page contributes "Beautiful," a lush pop ballad. But most of the soundtrack is handed over to the very capable Gabriel Yared, an Oscar Winner for his soundtrack to The English Patient. The Lebanese-born Yared draws on his own 25-plus years of scoring films to brilliantly build the drama to cathartic heights without sacrificing the quiet moments that match this romance with the season's explosion of color.
Track list:
01. Beautiful [0:04:10.35] performed by Jennifer Paige
- written by Austin Cunningham & Trina Harmon

02. Getting Some Fun Out of Life [0:03:13.05] performed by Madeline Peyroux
- written by Edgar Leslie & Joseph Burke

03. Autumn in New York [0:04:45.30] performed by Yvonne Washington
- written by Vernon Duke

04. Our Love Never Ends [0:04:06.55] performed by Sydney Forest
- written by Gabriel Yared, Sydney Forest & Donny Markowitz

05. Charlotte and Will [0:02:45.22]
06. Autumn Forever [0:03:39.40]
07. Elegy for Charlotte [0:03:15.50] lyrics & vocals by Miriam Stockley
08. Autumn in New York - Opening Titles [0:02:09.35]
09. First Kiss [0:01:28.15]
10. Memories [0:00:53.18] vocals by Miriam Stockley
11. A Rude Awakening [0:00:57.42]
12. Walking Through the Park [0:00:57.28]
13. Lunch [0:01:07.22]
14. Thinking About Lisa [0:00:57.05]
15. Butterflies [0:00:40.05]
16. Break-Up [0:01:30.15]
17. Thinking It Over [0:01:06.08]
18. Apart [0:01:44.02]
19. Can You Let Me Love You? [0:02:59.70]
20. Searching for a Doctor [0:01:17.45]
21. Katy [0:01:04.00]
22. The Chances for Success [0:01:21.25]
23. What Can I Give You [0:01:25.38]
24. I Don't Want to Leave You [0:02:09.47]
25. First / Last Snow [0:01:26.23] vocals by Miriam Stockley
26. To the Hospital [0:02:23.00] lyrics & vocals by Miriam Stockley
27. No Thing That Ever Flew [0:02:59.15]
28. The Gift [0:02:06.60] vocals by Miriam Stockley

Links: Discogs | SoundtrackCollector | IMDB

Exact Audio Copy V1.3 from 2. September 2016

EAC extraction logfile from 13. November 2018, 22:25

Gabriel Yared / Autumn in New York

Used drive : PLEXTOR CD-R PX-230A Adapter: 1 ID: 0

Read mode : Secure
Utilize accurate stream : Yes
Defeat audio cache : Yes
Make use of C2 pointers : No

Read offset correction : 738
Overread into Lead-In and Lead-Out : No
Fill up missing offset samples with silence : Yes
Delete leading and trailing silent blocks : No
Null samples used in CRC calculations : Yes
Used interface : Native Win32 interface for Win NT & 2000
Gap handling : Appended to previous track

Used output format : User Defined Encoder
Selected bitrate : 1024 kBit/s
Quality : High
Add ID3 tag : No
Command line compressor : C:\Program Files\Exact Audio Copy\Flac\flac.exe
Additional command line options : -6 -V -T "ARTIST=%artist%" -T "TITLE=%title%" -T "ALBUM=%albumtitle%" -T "DATE=%year%" -T "TRACKNUMBER=%tracknr%" -T "GENRE=%genre%" -T "COMMENT=%comment%" -T "ALBUMARTIST=%albuminterpret%" -T "COMPOSER=%composer%" -T "DISCNUMBER=%cdnumber%" -T "TOTALDISCS=%totalcds%" -T "TOTALTRACKS=%numtracks%" %source% -o %dest%


TOC of the extracted CD

Track | Start | Length | Start sector | End sector
––––––––––––––––––––––––––––-
1 | 0:00.00 | 4:10.35 | 0 | 18784
2 | 4:10.35 | 3:13.05 | 18785 | 33264
3 | 7:23.40 | 4:45.30 | 33265 | 54669
4 | 12:08.70 | 4:06.55 | 54670 | 73174
5 | 16:15.50 | 2:45.22 | 73175 | 85571
6 | 19:00.72 | 3:39.40 | 85572 | 102036
7 | 22:40.37 | 3:15.50 | 102037 | 116711
8 | 25:56.12 | 2:09.35 | 116712 | 126421
9 | 28:05.47 | 1:28.15 | 126422 | 133036
10 | 29:33.62 | 0:53.18 | 133037 | 137029
11 | 30:27.05 | 0:57.42 | 137030 | 141346
12 | 31:24.47 | 0:57.28 | 141347 | 145649
13 | 32:22.00 | 1:07.22 | 145650 | 150696
14 | 33:29.22 | 0:57.05 | 150697 | 154976
15 | 34:26.27 | 0:40.05 | 154977 | 157981
16 | 35:06.32 | 1:30.15 | 157982 | 164746
17 | 36:36.47 | 1:06.08 | 164747 | 169704
18 | 37:42.55 | 1:44.02 | 169705 | 177506
19 | 39:26.57 | 2:59.70 | 177507 | 191001
20 | 42:26.52 | 1:17.45 | 191002 | 196821
21 | 43:44.22 | 1:04.00 | 196822 | 201621
22 | 44:48.22 | 1:21.25 | 201622 | 207721
23 | 46:09.47 | 1:25.38 | 207722 | 214134
24 | 47:35.10 | 2:09.47 | 214135 | 223856
25 | 49:44.57 | 1:26.23 | 223857 | 230329
26 | 51:11.05 | 2:23.00 | 230330 | 241054
27 | 53:34.05 | 2:59.15 | 241055 | 254494
28 | 56:33.20 | 2:06.60 | 254495 | 264004


Track 1

Filename C:\Ripped by Filex\01 - Jennifer Paige - Beautiful.wav

Pre-gap length 0:00:02.00

Peak level 89.4 %
Extraction speed 6.7 X
Track quality 100.0 %
Test CRC A83109EE
Copy CRC A83109EE
Accurately ripped (confidence 5) [1D798F26] (AR v2)
Copy OK

Track 2

Filename C:\Ripped by Filex\02 - Madeline Peyroux - Getting Some Fun Out of Life.wav

Peak level 84.4 %
Extraction speed 6.7 X
Track quality 100.0 %
Test CRC 7A80074E
Copy CRC 7A80074E
Accurately ripped (confidence 5) [C1C21BDF] (AR v2)
Copy OK

Track 3

Filename C:\Ripped by Filex\03 - Yvonne Washington - Autumn in New York.wav

Pre-gap length 0:00:00.01

Peak level 79.3 %
Extraction speed 7.1 X
Track quality 100.0 %
Test CRC 315F180E
Copy CRC 315F180E
Accurately ripped (confidence 5) [079C2F23] (AR v2)
Copy OK

Track 4

Filename C:\Ripped by Filex\04 - Sydney Forest - Our Love Never Ends.wav

Pre-gap length 0:00:00.01

Peak level 89.7 %
Extraction speed 6.9 X
Track quality 100.0 %
Test CRC FCF645D0
Copy CRC FCF645D0
Accurately ripped (confidence 5) [C665B598] (AR v2)
Copy OK

Track 5

Filename C:\Ripped by Filex\05 - Gabriel Yared - Charlotte and Will.wav

Peak level 99.8 %
Extraction speed 7.1 X
Track quality 100.0 %
Test CRC C2558300
Copy CRC C2558300
Accurately ripped (confidence 5) [BC55730A] (AR v2)
Copy OK

Track 6

Filename C:\Ripped by Filex\06 - Gabriel Yared - Autumn Forever.wav

Pre-gap length 0:00:00.01

Peak level 99.8 %
Extraction speed 7.5 X
Track quality 100.0 %
Test CRC 3A436ECF
Copy CRC 3A436ECF
Accurately ripped (confidence 5) [0768D484] (AR v2)
Copy OK

Track 7

Filename C:\Ripped by Filex\07 - Gabriel Yared - Elegy for Charlotte.wav

Peak level 99.8 %
Extraction speed 7.9 X
Track quality 100.0 %
Test CRC D951A8AA
Copy CRC D951A8AA
Accurately ripped (confidence 5) [23F51688] (AR v2)
Copy OK

Track 8

Filename C:\Ripped by Filex\08 - Gabriel Yared - Autumn in New York (Opening Titles).wav

Pre-gap length 0:00:00.01

Peak level 99.8 %
Extraction speed 6.2 X
Track quality 99.9 %
Test CRC 42282B47
Copy CRC 42282B47
Accurately ripped (confidence 5) [CBA354D5] (AR v2)
Copy OK

Track 9

Filename C:\Ripped by Filex\09 - Gabriel Yared - First Kiss.wav

Pre-gap length 0:00:00.01

Peak level 65.3 %
Extraction speed 7.0 X
Track quality 100.0 %
Test CRC 10D8799C
Copy CRC 10D8799C
Accurately ripped (confidence 5) [4F35F737] (AR v2)
Copy OK

Track 10

Filename C:\Ripped by Filex\10 - Gabriel Yared - Memories.wav

Pre-gap length 0:00:00.01

Peak level 78.1 %
Extraction speed 6.5 X
Track quality 100.0 %
Test CRC 57B64E52
Copy CRC 57B64E52
Accurately ripped (confidence 5) [A5665E1A] (AR v2)
Copy OK

Track 11

Filename C:\Ripped by Filex\11 - Gabriel Yared - A Rude Awakening.wav

Pre-gap length 0:00:00.01

Peak level 54.7 %
Extraction speed 6.7 X
Track quality 100.0 %
Test CRC 66E856B4
Copy CRC 66E856B4
Accurately ripped (confidence 5) [5DDD0506] (AR v2)
Copy OK

Track 12

Filename C:\Ripped by Filex\12 - Gabriel Yared - Walking Through the Park.wav

Pre-gap length 0:00:00.01

Peak level 67.8 %
Extraction speed 6.9 X
Track quality 100.0 %
Test CRC 6B167112
Copy CRC 6B167112
Accurately ripped (confidence 5) [5DAD6A11] (AR v2)
Copy OK

Track 13

Filename C:\Ripped by Filex\13 - Gabriel Yared - Lunch.wav

Pre-gap length 0:00:00.01

Peak level 99.8 %
Extraction speed 7.0 X
Track quality 100.0 %
Test CRC 4214AD9F
Copy CRC 4214AD9F
Accurately ripped (confidence 5) [C817BDFD] (AR v2)
Copy OK

Track 14

Filename C:\Ripped by Filex\14 - Gabriel Yared - Thinking About Lisa.wav

Pre-gap length 0:00:00.01

Peak level 55.1 %
Extraction speed 4.7 X
Track quality 99.8 %
Test CRC BA8C0A3E
Copy CRC BA8C0A3E
Accurately ripped (confidence 5) [2318AA48] (AR v2)
Copy OK

Track 15

Filename C:\Ripped by Filex\15 - Gabriel Yared - Butterflies.wav

Pre-gap length 0:00:00.01

Peak level 25.7 %
Extraction speed 5.9 X
Track quality 100.0 %
Test CRC 27DE6627
Copy CRC 27DE6627
Accurately ripped (confidence 5) [15A6B500] (AR v2)
Copy OK

Track 16

Filename C:\Ripped by Filex\16 - Gabriel Yared - Break-Up.wav

Pre-gap length 0:00:00.01

Peak level 65.5 %
Extraction speed 7.8 X
Track quality 100.0 %
Test CRC CCAA7B1A
Copy CRC CCAA7B1A
Accurately ripped (confidence 5) [9610FC54] (AR v2)
Copy OK

Track 17

Filename C:\Ripped by Filex\17 - Gabriel Yared - Thinking It Over.wav

Pre-gap length 0:00:00.01

Peak level 77.7 %
Extraction speed 7.3 X
Track quality 100.0 %
Test CRC 704CDAC6
Copy CRC 704CDAC6
Accurately ripped (confidence 5) [73A698A2] (AR v2)
Copy OK

Track 18

Filename C:\Ripped by Filex\18 - Gabriel Yared - Apart.wav

Peak level 86.3 %
Extraction speed 7.9 X
Track quality 100.0 %
Test CRC 3D84F136
Copy CRC 3D84F136
Accurately ripped (confidence 5) [F8DD4DC7] (AR v2)
Copy OK

Track 19

Filename C:\Ripped by Filex\19 - Gabriel Yared - Can't You Let Me Love You.wav

Pre-gap length 0:00:00.01

Peak level 87.7 %
Extraction speed 7.4 X
Track quality 99.9 %
Test CRC 40164222
Copy CRC 40164222
Accurately ripped (confidence 5) [46BE9B66] (AR v2)
Copy OK

Track 20

Filename C:\Ripped by Filex\20 - Gabriel Yared - Searching For a Doctor.wav

Pre-gap length 0:00:00.01

Peak level 38.2 %
Extraction speed 7.7 X
Track quality 100.0 %
Test CRC 49D8ED85
Copy CRC 49D8ED85
Accurately ripped (confidence 5) [8A15B8F0] (AR v2)
Copy OK

Track 21

Filename C:\Ripped by Filex\21 - Gabriel Yared - Katy.wav

Pre-gap length 0:00:00.01

Peak level 30.5 %
Extraction speed 7.7 X
Track quality 100.0 %
Test CRC 4C3C69CA
Copy CRC 4C3C69CA
Accurately ripped (confidence 5) [787C38E3] (AR v2)
Copy OK

Track 22

Filename C:\Ripped by Filex\22 - Gabriel Yared - The Chances for Success.wav

Pre-gap length 0:00:00.01

Peak level 61.3 %
Extraction speed 6.0 X
Track quality 99.8 %
Test CRC 30E00BAD
Copy CRC 30E00BAD
Accurately ripped (confidence 5) [CC42E9A9] (AR v2)
Copy OK

Track 23

Filename C:\Ripped by Filex\23 - Gabriel Yared - What Can I Give You.wav

Pre-gap length 0:00:00.01

Peak level 80.2 %
Extraction speed 8.2 X
Track quality 100.0 %
Test CRC 1EA9082F
Copy CRC 1EA9082F
Accurately ripped (confidence 5) [4C4688E5] (AR v2)
Copy OK

Track 24

Filename C:\Ripped by Filex\24 - Gabriel Yared - I Don't Want to Leave You.wav

Pre-gap length 0:00:00.01

Peak level 99.8 %
Extraction speed 8.9 X
Track quality 100.0 %
Test CRC 59CB3048
Copy CRC 59CB3048
Accurately ripped (confidence 5) [06BF6404] (AR v2)
Copy OK

Track 25

Filename C:\Ripped by Filex\25 - Gabriel Yared - First and Last Snow.wav

Pre-gap length 0:00:00.01

Peak level 38.9 %
Extraction speed 6.3 X
Track quality 99.8 %
Test CRC 0525788E
Copy CRC 0525788E
Accurately ripped (confidence 5) [D1A096CF] (AR v2)
Copy OK

Track 26

Filename C:\Ripped by Filex\26 - Gabriel Yared - To the Hospital.wav

Pre-gap length 0:00:00.01

Peak level 99.8 %
Extraction speed 9.3 X
Track quality 100.0 %
Test CRC 4AA28A45
Copy CRC 4AA28A45
Accurately ripped (confidence 5) [8C271D59] (AR v2)
Copy OK

Track 27

Filename C:\Ripped by Filex\27 - Gabriel Yared - No Thing That Ever Flew.wav

Pre-gap length 0:00:00.01

Peak level 55.9 %
Extraction speed 9.7 X
Track quality 100.0 %
Test CRC 98B79F65
Copy CRC 98B79F65
Accurately ripped (confidence 5) [D966B2BA] (AR v2)
Copy OK

Track 28

Filename C:\Ripped by Filex\28 - Gabriel Yared - The Gift.wav

Pre-gap length 0:00:00.01

Peak level 99.8 %
Extraction speed 7.2 X
Track quality 99.9 %
Test CRC 5AF67F65
Copy CRC 5AF67F65
Accurately ripped (confidence 5) [769551CF] (AR v2)
Copy OK


All tracks accurately ripped

No errors occurred

End of status report

–– CUETools DB Plugin V2.1.6

[CTDB TOCID: JdWf131zR6ZTG1MJo7I5D7o7hH4-] found
Submit result: JdWf131zR6ZTG1MJo7I5D7o7hH4- has been confirmed
Track | CTDB Status
1 | ( 8/19) Accurately ripped
2 | ( 8/19) Accurately ripped
3 | ( 8/19) Accurately ripped
4 | ( 8/19) Accurately ripped
5 | ( 8/19) Accurately ripped
6 | ( 8/19) Accurately ripped
7 | ( 8/19) Accurately ripped
8 | ( 8/19) Accurately ripped
9 | ( 8/19) Accurately ripped
10 | ( 8/19) Accurately ripped
11 | ( 8/19) Accurately ripped
12 | ( 8/19) Accurately ripped
13 | ( 8/19) Accurately ripped
14 | ( 8/19) Accurately ripped
15 | ( 8/19) Accurately ripped
16 | ( 8/19) Accurately ripped
17 | ( 8/19) Accurately ripped
18 | ( 8/19) Accurately ripped
19 | ( 8/19) Accurately ripped
20 | ( 8/19) Accurately ripped
21 | ( 8/19) Accurately ripped
22 | ( 8/19) Accurately ripped
23 | ( 8/19) Accurately ripped
24 | ( 8/19) Accurately ripped
25 | ( 8/19) Accurately ripped
26 | ( 8/19) Accurately ripped
27 | ( 8/19) Accurately ripped
28 | ( 7/19) Accurately ripped


==== Log checksum E2109762017350C591ADCEAB9E1498BB8DCBD64A0D5FDCAFA9EA0D7CCEE9589F ====