Subcategories

Gabriele Ferro, Orchestra del Teatro Comunale di Bologna, Luciana Serra, Cecilia Bartoli - Rossini: La Scala di Seta (2002)

Posted By: ArlegZ
Gabriele Ferro, Orchestra del Teatro Comunale di Bologna, Luciana Serra, Cecilia Bartoli - Rossini: La Scala di Seta (2002)

Gabriele Ferro, Orchestra del Teatro Comunale di Bologna, Luciana Serra, Cecilia Bartoli - Rossini: La Scala di Seta (2002)
EAC | FLAC | Image (Cue & Log) ~ 488 Mb | Total time: 49:12+44:04 | Scans included
Classical | Label: Warner Fonit | # 0927 43307-2 | Recorded: 1988

"La scala di seta" is an operatic farsa comica in one act by Gioachino Rossini to a libretto by Giuseppe Maria Foppa. It was first performed in Venice, Italy, at the Teatro San Moisè on 9 May 1812. The overture has been frequently recorded and continues to be featured in the modern concert repertoire.
From 1810 to 1813, the young Rossini composed four Italian farse, beginning with La cambiale di matrimonio (The Bill of Marriage), his first opera, and ending with Il Signor Bruschino. These types of short pieces were popular in Venice at the end of the 18th century and the beginning of the 19th century. The pieces were intimate, with a cast of five to seven singers, always including a pair of lovers, at least two comic parts, and one or two other minor roles. The style called for much visual comedy improvised by the players. As compared to many genres of opera, acting and comedic talent is more important relative to the required singing ability. Rossini’s farces also have a significant sentimental element.

Performer:
Giulia – Luciana Serra
Lucilla – Cecilia Bartoli
Dorvil – William Matteuzzi
Germano – Roberto Coviello
Blansac – Natale de Carolis
Dormont – Oslavio di Credico
Orchestra del Teatro Comunale di Bologna
Conductor - Gabriele Ferro

Track List:
CD1:
01.Sinfonia
02.Scena Prima. Introduzione: Va sciocco
03. Scena Seconda. Recitativo: Siamo sicuri, uscite
04. Scena Terza. Recitativo: Egli e sceso… respiro
05. Scena Quarta. Recitativo: Signor padron
06. Duetto: Io so ch'hai buon core
07. Scena Quinta. Recitativo: Oh senza cerimonie
08. Scena Sesta. Recitativo: Distorglielo tentiam"
09. Recitativo: Tu vuoi?
10. Aria: Vedro qual sommo incanto
11. Scena Settima. Recitativo: Io non so conquistare
12. Quartetto: Si che unito
CD2:
01. Scena Ottava. Recitativo: Va la presto
02. Scena Nona. Recitativo: Ora andiamo dat tutor
03. Aria: Sento talor nell'anima
04. Scena Decima. Recitativo: Bellissima! Ilcasetto e proprio nuovo
05. Scena Undisesima. Recitativo: E ognun ni dice siocco
06. Scena Dodicesima. Recitativo: Sollecitiam perche Blansac
07. Recitativo: Ma se mai, ed Aria: Il mio ben
08. Scena Tredicesima. Recitativo: Brava! Vada
09. Aria: Amore dolcemente
10. Scena Quattordicesima. Recitativo: Cosa? Come?
11. Scena Quindicesima. Recitativo: Buon non c'e persona
12. Scena Sedicesima. Finale: Dorme ogunno
13. Scena Ultima: Finir convien la scena


Exact Audio Copy V1.3 from 2. September 2016

EAC extraction logfile from 21. January 2018, 21:00

Gabriele Ferro, Orchestra del Teatro Comunale di Bologna / Rossini - La Scala di Seta CD1

Used drive : HL-DT-STDVDRAM GH24NS95 Adapter: 1 ID: 0

Read mode : Secure
Utilize accurate stream : Yes
Defeat audio cache : Yes
Make use of C2 pointers : No

Read offset correction : 6
Overread into Lead-In and Lead-Out : No
Fill up missing offset samples with silence : Yes
Delete leading and trailing silent blocks : No
Null samples used in CRC calculations : Yes
Used interface : Native Win32 interface for Win NT & 2000

Used output format : User Defined Encoder
Selected bitrate : 128 kBit/s
Quality : High
Add ID3 tag : No
Command line compressor : C:\Program Files\Exact Audio Copy\Flac\flac.exe
Additional command line options : -V -8 -T "Date=%year%" -T "Genre=%genre%" %source%


TOC of the extracted CD

Track | Start | Length | Start sector | End sector
––––––––––––––––––––––––––––-
1 | 0:00.00 | 6:10.72 | 0 | 27821
2 | 6:10.72 | 8:09.23 | 27822 | 64519
3 | 14:20.20 | 1:50.60 | 64520 | 72829
4 | 16:11.05 | 0:45.15 | 72830 | 76219
5 | 16:56.20 | 1:24.60 | 76220 | 82579
6 | 18:21.05 | 8:57.70 | 82580 | 122924
7 | 27:19.00 | 0:49.00 | 122925 | 126599
8 | 28:08.00 | 1:33.02 | 126600 | 133576
9 | 29:41.02 | 0:38.63 | 133577 | 136489
10 | 30:19.65 | 6:10.32 | 136490 | 164271
11 | 36:30.22 | 2:17.30 | 164272 | 174576
12 | 38:47.52 | 10:22.58 | 174577 | 221284


Range status and errors

Selected range

Filename C:\Program Files\Exact Audio Copy\Flac\Rossini - La Scala di Seta CD1.wav

Peak level 91.0 %
Extraction speed 7.5 X
Range quality 99.9 %
Test CRC 81346BAF
Copy CRC 81346BAF
Copy OK

No errors occurred

End of status report

==== Log checksum 1E0E50B56A3FAFB23D8EBD7D890875F171B0D9B56DC6BEDC0CE54E0FF440AD11 ====


Exact Audio Copy V1.3 from 2. September 2016

EAC extraction logfile from 21. January 2018, 21:23

Gabriele Ferro, Orchestra del Teatro Comunale di Bologna / Rossini - La Scala di Seta CD2

Used drive : HL-DT-STDVDRAM GH24NS95 Adapter: 1 ID: 0

Read mode : Secure
Utilize accurate stream : Yes
Defeat audio cache : Yes
Make use of C2 pointers : No

Read offset correction : 6
Overread into Lead-In and Lead-Out : No
Fill up missing offset samples with silence : Yes
Delete leading and trailing silent blocks : No
Null samples used in CRC calculations : Yes
Used interface : Native Win32 interface for Win NT & 2000

Used output format : User Defined Encoder
Selected bitrate : 128 kBit/s
Quality : High
Add ID3 tag : No
Command line compressor : C:\Program Files\Exact Audio Copy\Flac\flac.exe
Additional command line options : -V -8 -T "Date=%year%" -T "Genre=%genre%" %source%


TOC of the extracted CD

Track | Start | Length | Start sector | End sector
––––––––––––––––––––––––––––-
1 | 0:00.00 | 0:21.37 | 0 | 1611
2 | 0:21.37 | 1:31.35 | 1612 | 8471
3 | 1:52.72 | 2:23.43 | 8472 | 19239
4 | 4:16.40 | 0:52.72 | 19240 | 23211
5 | 5:09.37 | 0:27.18 | 23212 | 25254
6 | 5:36.55 | 1:18.22 | 25255 | 31126
7 | 6:55.02 | 8:42.63 | 31127 | 70339
8 | 15:37.65 | 0:50.42 | 70340 | 74131
9 | 16:28.32 | 9:05.28 | 74132 | 115034
10 | 25:33.60 | 1:53.62 | 115035 | 123571
11 | 27:27.47 | 0:49.35 | 123572 | 127281
12 | 28:17.07 | 9:45.35 | 127282 | 171191
13 | 38:02.42 | 5:59.33 | 171192 | 198149


Range status and errors

Selected range

Filename C:\Program Files\Exact Audio Copy\Flac\Rossini - La Scala di Seta CD2.wav

Peak level 90.4 %
Extraction speed 6.7 X
Range quality 100.0 %
Test CRC FF3D2E09
Copy CRC FF3D2E09
Copy OK

No errors occurred

End of status report

==== Log checksum FCA292134763745FE9DB4D0AB98FD7A0F762FF31F298664BCE355A12DC8F8203 ====

Gabriele Ferro, Orchestra del Teatro Comunale di Bologna, Luciana Serra, Cecilia Bartoli - Rossini: La Scala di Seta (2002)