Tags
Language
Tags

Gaetano Nasillo, Chiara Banchini, Ensemble 415 - Concerti Napoletani per Violoncello (2005)

Posted By: ArlegZ
Gaetano Nasillo, Chiara Banchini, Ensemble 415 - Concerti Napoletani per Violoncello (2005)

Gaetano Nasillo, Chiara Banchini, Ensemble 415 - Concerti Napoletani per Violoncello (2005)
EAC | FLAC | Image (Cue & Log) ~ 415 Mb | Total time: 70:04 | Scans included
Classical | Label: Zig Zag Territoires ‎| ZZT 050302 | Recorded: 2004

When one speaks today of the history of the Italian solo concert, one thinks first of Bologna (Torelli, Corelli) and Venice (Albinoni, Vivaldi). It is sometimes overlooked that important impulses for the further development of the genre also emanated from Naples. In addition, cellists in particular owe a lot to the Neapolitans, which this CD aims to clarify. The best known are probably the six concertos by Leonardo Leo (1694-1744) with their light, sometimes gallant tone; of them the A major concerto is represented here along with four individual works by Nicola Fiorenza (died 1764), Nicola Porpora (1686–1768) and Nicola Sabatino (approx. 1705-1796). All composers came from Naples or worked there, even if Porpora's G major concerto was written later in London. Incidentally, the A minor concerto was also considered his work for a long time, but is now ascribed to Fiorenza or its immediate vicinity.

Performer:
Gaetano Nasillo, cello
Ensemble 415
Chiara Banchini, direction

Track List:
Nicola Fiorenza (?-1764)
Solo Cello Concerto in F major
01. Presto
02. Allegro
03. Largo
04. Allegro
Nicola Antonio Porpora (1686-1768)
Cello concerto in G major
05. Adagio
06. Allegro
07. Adagio
08. Allegro
Leonardo Leo (1694-1744)
Solo Cello Concerto in A major
09. Andantino gracioso
10. Allegro
11. Larghetto
12. Allegro
Nicola Fiorenza (?-1764)
Cello Concerto in A major
13. Largo
14. Allegro
15. Adagio
16. Allegro
Nicola Sabatino (1708-1796)
Solo di Violoncello con due violini e basso in G major
17. Largo assai
18. Fuga
19. Adagio
20. Allegro mà preso


Exact Audio Copy V1.5 from 20. February 2020

EAC extraction logfile from 24. September 2020, 9:19

Gaetano Nasillo / Concerti Napoletani per Violoncello

Used drive : HL-DT-STDVDRAM GH24NSD5 Adapter: 1 ID: 0

Read mode : Secure
Utilize accurate stream : Yes
Defeat audio cache : Yes
Make use of C2 pointers : No

Read offset correction : 6
Overread into Lead-In and Lead-Out : No
Fill up missing offset samples with silence : Yes
Delete leading and trailing silent blocks : No
Null samples used in CRC calculations : Yes
Used interface : Native Win32 interface for Win NT & 2000

Used output format : User Defined Encoder
Selected bitrate : 896 kBit/s
Quality : High
Add ID3 tag : No
Command line compressor : C:\Program Files (x86)\Exact Audio Copy\FLAC\FLAC.EXE
Additional command line options : -6 -V -T "ARTIST=%artist%" -T "TITLE=%title%" -T "ALBUM=%albumtitle%" -T "DATE=%year%" -T "TRACKNUMBER=%tracknr%" -T "GENRE=%genre%" -T "COMMENT=%comment%" -T "BAND=%albuminterpret%" -T "ALBUMARTIST=%albuminterpret%" -T "COMPOSER=%composer%" %haslyrics%–tag-from-file=LYRICS="%lyricsfile%"%haslyrics% -T "DISCNUMBER=%cdnumber%" -T "TOTALDISCS=%totalcds%" -T "TOTALTRACKS=%numtracks%" %hascover%–picture="%coverfile%"%hascover% %source% -o %dest%


TOC of the extracted CD

Track | Start | Length | Start sector | End sector
––––––––––––––––––––––––––––-
1 | 0:00.00 | 4:47.28 | 0 | 21552
2 | 4:47.28 | 3:17.62 | 21553 | 36389
3 | 8:05.15 | 2:43.68 | 36390 | 48682
4 | 10:49.08 | 4:30.35 | 48683 | 68967
5 | 15:19.43 | 4:37.23 | 68968 | 89765
6 | 19:56.66 | 5:23.40 | 89766 | 114030
7 | 25:20.31 | 4:05.02 | 114031 | 132407
8 | 29:25.33 | 4:25.41 | 132408 | 152323
9 | 33:50.74 | 3:08.10 | 152324 | 166433
10 | 36:59.09 | 2:57.44 | 166434 | 179752
11 | 39:56.53 | 3:40.44 | 179753 | 196296
12 | 43:37.22 | 2:53.17 | 196297 | 209288
13 | 46:30.39 | 2:34.52 | 209289 | 220890
14 | 49:05.16 | 3:13.43 | 220891 | 235408
15 | 52:18.59 | 1:24.60 | 235409 | 241768
16 | 53:43.44 | 2:43.08 | 241769 | 254001
17 | 56:26.52 | 4:07.42 | 254002 | 272568
18 | 60:34.19 | 3:32.46 | 272569 | 288514
19 | 64:06.65 | 3:03.06 | 288515 | 302245
20 | 67:09.71 | 2:54.19 | 302246 | 315314


Range status and errors

Selected range

Filename I:\Rips\Various - Concerti Napoletani per Violoncello - Nasillo, Banchini\Gaetano Nasillo - Concerti Napoletani per Violoncello.wav

Peak level 99.2 %
Extraction speed 7.3 X
Range quality 100.0 %
Test CRC B5D497BB
Copy CRC B5D497BB
Copy OK

No errors occurred


AccurateRip summary

Track 1 accurately ripped (confidence 12) [0C5AC290] (AR v2)
Track 2 accurately ripped (confidence 12) [7B2B6966] (AR v2)
Track 3 accurately ripped (confidence 12) [46249CF4] (AR v2)
Track 4 accurately ripped (confidence 12) [395B5193] (AR v2)
Track 5 accurately ripped (confidence 12) [C655FF15] (AR v2)
Track 6 accurately ripped (confidence 12) [CF4DF819] (AR v2)
Track 7 accurately ripped (confidence 12) [A2206B00] (AR v2)
Track 8 accurately ripped (confidence 11) [A70525A2] (AR v2)
Track 9 accurately ripped (confidence 12) [45C0E1E2] (AR v2)
Track 10 accurately ripped (confidence 12) [124AE8F4] (AR v2)
Track 11 accurately ripped (confidence 12) [FA072B0E] (AR v2)
Track 12 accurately ripped (confidence 12) [DAE3EB2E] (AR v2)
Track 13 accurately ripped (confidence 12) [0DA9850D] (AR v2)
Track 14 accurately ripped (confidence 12) [26F11776] (AR v2)
Track 15 accurately ripped (confidence 12) [38669302] (AR v2)
Track 16 accurately ripped (confidence 12) [B18D5FC2] (AR v2)
Track 17 accurately ripped (confidence 12) [AD21747D] (AR v2)
Track 18 accurately ripped (confidence 12) [E92D5018] (AR v2)
Track 19 accurately ripped (confidence 12) [00088DD6] (AR v2)
Track 20 accurately ripped (confidence 11) [E8BCF9BF] (AR v2)

All tracks accurately ripped

End of status report

–– CUETools DB Plugin V2.1.6

[CTDB TOCID: Wv0DvM71JS6.ZLEvZzrq1QumsMc-] found
Submit result: Wv0DvM71JS6.ZLEvZzrq1QumsMc- has been confirmed
Track | CTDB Status
1 | (28/28) Accurately ripped
2 | (28/28) Accurately ripped
3 | (28/28) Accurately ripped
4 | (28/28) Accurately ripped
5 | (28/28) Accurately ripped
6 | (28/28) Accurately ripped
7 | (28/28) Accurately ripped
8 | (28/28) Accurately ripped
9 | (27/28) Accurately ripped
10 | (28/28) Accurately ripped
11 | (28/28) Accurately ripped
12 | (28/28) Accurately ripped
13 | (28/28) Accurately ripped
14 | (28/28) Accurately ripped
15 | (28/28) Accurately ripped
16 | (28/28) Accurately ripped
17 | (28/28) Accurately ripped
18 | (28/28) Accurately ripped
19 | (28/28) Accurately ripped
20 | (28/28) Accurately ripped


==== Log checksum E6E44FCD5F7610CAD53B86AAB7A6681C67FCD81518FFD3A5F2C2EA89610F4CA5 ====

Gaetano Nasillo, Chiara Banchini, Ensemble 415 - Concerti Napoletani per Violoncello (2005)

Thanks to the original releaser