Subcategories

Gazpacho - When Earth Lets Go (2004)

Posted By: gribovar
Gazpacho - When Earth Lets Go (2004)

Gazpacho - When Earth Lets Go (2004)
EAC Rip | FLAC (tracks+.cue+log) - 292 MB | MP3 CBR 320 kbps (LAME 3.93) - 105 MB | Covers - 73 MB
Genre: Progressive Rock | RAR 3% Rec. | Label: Intact Records (Intact CD07)

"When Earth Lets Go" is the 2nd full-length studio album by Norwegian rock act Gazpacho. The debut album "Bravo (2003)" attracted the attention of Marillion, who offered Gazpacho the support slot on their 31-date European "Marbles (2004)" tour which ran through 11 countries. Before going on tour with Marillion, Gazpacho opted to record and release "When Earth Lets Go", to have more material to chose from for their setlist.
The music on "When Earth Lets Go" more or less continue the semi-progressive rock style of it´s predecessor and as such it feels like a very natural successor to "Bravo (2003)". The warm, emotional and melancholic vocals by lead vocalist Jan H. Ohme are still the center of attention but the rest of the band also deliver a pleasant and warm backing. The music is predominantly mainstream vers/chorus structured and using the word "progressive" about the music might be stretching the definition of progressive rock a slight bit but tracks like "Snowman", "Put It On The Air" and "Substitute for Murder" do all possess innovative and slightly progressive elements. But it´s with emotional impact that "When Earth Lets Go" will hit the listener and not by adventurous ideas, and Gazpacho succeed well in laying the foundation for that impact. "When Earth Lets Go" is generally a very warm album featuring a melancholic atmosphere.
The musicianship are on a good level all around. The addition of a drummer since the debut (which featured programmed drums) provides the music with more punch even though this is rather mellow music for the most part. "When Earth Lets Go" features a warm and pleasant sound production to go along with the mellow atmosphere, so all elements suit each other.

Tracklist:
01. Intro
02. Snowman
03. Put It On The Air
04. Souvenir
05. Steal Yourself
06. 117
07. Beach House
08. Substitute For Murder
09. Dinglers Horses
10. When Earth Lets Go

Total time: 44:37

Exact Audio Copy V1.3 from 2. September 2016

EAC extraction logfile from 9. March 2018, 23:02

Gazpacho / When Earth Lets Go

Used drive : ATAPI iHAS122 F Adapter: 1 ID: 0

Read mode : Secure
Utilize accurate stream : Yes
Defeat audio cache : Yes
Make use of C2 pointers : No

Read offset correction : 6
Overread into Lead-In and Lead-Out : No
Fill up missing offset samples with silence : Yes
Delete leading and trailing silent blocks : No
Null samples used in CRC calculations : Yes
Used interface : Native Win32 interface for Win NT & 2000
Gap handling : Appended to previous track

Used output format : User Defined Encoder
Selected bitrate : 1024 kBit/s
Quality : High
Add ID3 tag : Yes
Command line compressor : C:\Program Files (x86)\Exact Audio Copy\Flac\flac.exe
Additional command line options : -6 -V -T "ARTIST=%artist%" -T "TITLE=%title%" -T "ALBUM=%albumtitle%" -T "DATE=%year%" -T "TRACKNUMBER=%tracknr%" -T "GENRE=%genre%" -T "COMMENT=%comment%" %hascover%–picture="%coverfile%"%hascover% %source% -o %dest%


TOC of the extracted CD

Track | Start | Length | Start sector | End sector
––––––––––––––––––––––––––––-
1 | 0:00.00 | 0:46.28 | 0 | 3477
2 | 0:46.28 | 4:26.24 | 3478 | 23451
3 | 5:12.52 | 5:09.38 | 23452 | 46664
4 | 10:22.15 | 3:36.60 | 46665 | 62924
5 | 13:59.00 | 3:51.67 | 62925 | 80316
6 | 17:50.67 | 6:22.40 | 80317 | 109006
7 | 24:13.32 | 5:06.57 | 109007 | 132013
8 | 29:20.14 | 6:10.34 | 132014 | 159797
9 | 35:30.48 | 4:19.16 | 159798 | 179238
10 | 39:49.64 | 4:48.74 | 179239 | 200912


Track 1

Filename E:\Music\olaf_alien\Gazpacho - When Earth Lets Go (2005, Intact)\01 - Intro.wav

Pre-gap length 0:00:02.00

Peak level 37.1 %
Extraction speed 1.1 X
Track quality 100.0 %
Test CRC 58F88CFF
Copy CRC 58F88CFF
Accurately ripped (confidence 6) [4AFF4579] (AR v2)
Copy OK

Track 2

Filename E:\Music\olaf_alien\Gazpacho - When Earth Lets Go (2005, Intact)\02 - Snowman.wav

Peak level 100.0 %
Extraction speed 2.0 X
Track quality 100.0 %
Test CRC DD6B6EA5
Copy CRC DD6B6EA5
Accurately ripped (confidence 6) [1DF70242] (AR v2)
Copy OK

Track 3

Filename E:\Music\olaf_alien\Gazpacho - When Earth Lets Go (2005, Intact)\03 - Put It on the Air.wav

Peak level 99.5 %
Extraction speed 2.2 X
Track quality 100.0 %
Test CRC 118467E1
Copy CRC 118467E1
Accurately ripped (confidence 6) [DE84541C] (AR v2)
Copy OK

Track 4

Filename E:\Music\olaf_alien\Gazpacho - When Earth Lets Go (2005, Intact)\04 - Souvenir.wav

Peak level 97.7 %
Extraction speed 1.7 X
Track quality 99.9 %
Test CRC 43965745
Copy CRC 43965745
Accurately ripped (confidence 6) [83028BAD] (AR v2)
Copy OK

Track 5

Filename E:\Music\olaf_alien\Gazpacho - When Earth Lets Go (2005, Intact)\05 - Steal Yourself.wav

Peak level 98.8 %
Extraction speed 2.5 X
Track quality 100.0 %
Test CRC 4657B54D
Copy CRC 4657B54D
Accurately ripped (confidence 5) [ED3121E0] (AR v2)
Copy OK

Track 6

Filename E:\Music\olaf_alien\Gazpacho - When Earth Lets Go (2005, Intact)\06 - 117.wav

Peak level 99.5 %
Extraction speed 2.9 X
Track quality 100.0 %
Test CRC E1057D30
Copy CRC E1057D30
Accurately ripped (confidence 6) [AABBB5CE] (AR v2)
Copy OK

Track 7

Filename E:\Music\olaf_alien\Gazpacho - When Earth Lets Go (2005, Intact)\07 - Beach House.wav

Peak level 97.7 %
Extraction speed 2.4 X
Track quality 99.9 %
Test CRC A8CEC4C3
Copy CRC A8CEC4C3
Accurately ripped (confidence 6) [8AD8FBB4] (AR v2)
Copy OK

Track 8

Filename E:\Music\olaf_alien\Gazpacho - When Earth Lets Go (2005, Intact)\08 - Substitute for Murder.wav

Peak level 98.8 %
Extraction speed 3.3 X
Track quality 100.0 %
Test CRC 008ECEE1
Copy CRC 008ECEE1
Accurately ripped (confidence 5) [17D95386] (AR v2)
Copy OK

Track 9

Filename E:\Music\olaf_alien\Gazpacho - When Earth Lets Go (2005, Intact)\09 - Dinglers Horses.wav

Peak level 97.9 %
Extraction speed 3.3 X
Track quality 100.0 %
Test CRC 4D2C9119
Copy CRC 4D2C9119
Accurately ripped (confidence 6) [3484BFDC] (AR v2)
Copy OK

Track 10

Filename E:\Music\olaf_alien\Gazpacho - When Earth Lets Go (2005, Intact)\10 - When Earth Lets Go.wav

Peak level 99.0 %
Extraction speed 3.5 X
Track quality 100.0 %
Test CRC 1721D539
Copy CRC 1721D539
Accurately ripped (confidence 6) [C9B1AA65] (AR v2)
Copy OK


All tracks accurately ripped

No errors occurred

End of status report

–– CUETools DB Plugin V2.1.6

[CTDB TOCID: zB0wPRZ9nt2TE22tc_mwSHyCH_o-] found
Submit result: zB0wPRZ9nt2TE22tc_mwSHyCH_o- has been confirmed
Track | CTDB Status
1 | (19/19) Accurately ripped
2 | (19/19) Accurately ripped
3 | (19/19) Accurately ripped
4 | (19/19) Accurately ripped
5 | (19/19) Accurately ripped
6 | (19/19) Accurately ripped
7 | (19/19) Accurately ripped
8 | (19/19) Accurately ripped
9 | (19/19) Accurately ripped
10 | (19/19) Accurately ripped


==== Log checksum 56C9C7BB5F34CD9675E1941F12DBAE3A7918C85CE5281E428DDC8E54FBB1F0B9 ====

[CUETools log; Date: 08.06.2018 20:55:14; Version: 2.1.4]
[CTDB TOCID: zB0wPRZ9nt2TE22tc_mwSHyCH_o-] found.
Track | CTDB Status
1 | (21/21) Accurately ripped
2 | (21/21) Accurately ripped
3 | (21/21) Accurately ripped
4 | (21/21) Accurately ripped
5 | (21/21) Accurately ripped
6 | (21/21) Accurately ripped
7 | (21/21) Accurately ripped
8 | (21/21) Accurately ripped
9 | (21/21) Accurately ripped
10 | (21/21) Accurately ripped
[AccurateRip ID: 000f39b0-007ef514-6f0a760a] found.
Track [ CRC | V2 ] Status
01 [e5445433|4aff4579] (04+07/22) Accurately ripped
02 [6194ced1|1df70242] (04+07/22) Accurately ripped
03 [9677c9fc|de84541c] (04+07/22) Accurately ripped
04 [0dc1d099|83028bad] (04+07/22) Accurately ripped
05 [9642254e|ed3121e0] (04+06/21) Accurately ripped
06 [6074ee04|aabbb5ce] (04+07/22) Accurately ripped
07 [9a898efa|8ad8fbb4] (04+07/22) Accurately ripped
08 [47e093ce|17d95386] (04+06/21) Accurately ripped
09 [403af764|3484bfdc] (04+07/22) Accurately ripped
10 [688afc0f|c9b1aa65] (04+07/22) Accurately ripped
Offsetted by 664:
01 [64ae6568] (09/22) Accurately ripped
02 [a1fd484c] (09/22) Accurately ripped
03 [6d5183ed] (09/22) Accurately ripped
04 [fe095f93] (09/22) Accurately ripped
05 [68976314] (09/21) Accurately ripped
06 [d3225e2e] (09/22) Accurately ripped
07 [1e292463] (09/22) Accurately ripped
08 [ae23f722] (09/21) Accurately ripped
09 [6a722c45] (09/22) Accurately ripped
10 [15244b8d] (09/22) Accurately ripped

Track Peak [ CRC32 ] [W/O NULL] [ LOG ]
– 100,0 [F00A4E2C] [3456A16B]
01 37,1 [58F88CFF] [F671314C] CRC32
02 100,0 [DD6B6EA5] [39C4D742] CRC32
03 99,5 [118467E1] [8EF224DD] CRC32
04 97,7 [43965745] [B7D65DB7] CRC32
05 98,8 [4657B54D] [4350592A] CRC32
06 99,5 [E1057D30] [139A10AB] CRC32
07 97,7 [A8CEC4C3] [C461765D] CRC32
08 98,8 [008ECEE1] [18FEF256] CRC32
09 97,9 [4D2C9119] [153BF48D] CRC32
10 99,0 [1721D539] [F6779EB9] CRC32

Thanks to Olaf_alien

See also:
Gazpacho - Firebird (2005) [Reissue 2016]
Gazpacho - Tick Tock (2009) [Reissue 2016]
Gazpacho - March Of Ghosts (2012)
Gazpacho - Demon (2014)
Gazpacho - Molok (2015)
Gazpacho - Soyuz (2018)