Tags
Language
Tags

Georg Solti, London Philharmonic Orchestra - Elgar: Symphonies 1 & 2 (1995)

Posted By: ArlegZ
Georg Solti, London Philharmonic Orchestra - Elgar: Symphonies 1 & 2 (1995)

Georg Solti, London Philharmonic Orchestra - Elgar: Symphonies 1 & 2 (1995)
EAC | FLAC | Image (Cue & Log) ~ 633 Mb | Total time: 134:58 | Scans included
Classical | Label: Decca | 443 856-2 | Recorded: 1972, 1975, 1976, 1979

Solti’s recording of Elgar 1 blew across the face of British music in the early Seventies like a blast of fresh air. Immersing himself in Elgar’s own brisk interpretations, Solti forced us to reassess the provincial tradition of Boult and Barbirolli. Hearing it again now, one is struck, if anything, by the lavish attention to detail and by a sense of loving devotion to the music; the slow movement is positively reverential. More recent readings (Slatkin, Davis, etc) show how things have developed, and Hurst’s Naxos account is a strong budget contender. But Solti’s version is deeply felt and gloriously played.
– Barry Millington

Performer:
London Philharmonic Orchestra
Sir Georg Solti, conductor

Track List:
CD1:
01. Cockaigne Overture ("In London Town"), concert overture for orchestra & organ, Op. 40
Symphony No. 1 in A flat major, Op. 55
02. I. Andante. Nobilmente E Semplice - Allegro
03. II. Allegro Molto
04. III. Adagio
05. IV. Lento - Allegro
CD2:
01. In the South ("Alassio"), concert overture for orchestra, Op. 50
Symphony No. 2 in E flat major, Op. 63
02. I. Allegro vivace e nobilmente
03. II. Larghetto
04. III. Rondo: Presto
05. IV. Moderato e maestoso


Exact Audio Copy V1.3 from 2. September 2016

EAC extraction logfile from 10. May 2020, 23:20

Elgar / Symphony No. 2 & In the South (Solti, London Philharmonic Orch.)

Used drive : PLEXTOR DVDR PX-891SA Adapter: 1 ID: 1

Read mode : Secure
Utilize accurate stream : Yes
Defeat audio cache : No
Make use of C2 pointers : No

Combined read/write offset correction : 0
Overread into Lead-In and Lead-Out : No
Fill up missing offset samples with silence : Yes
Delete leading and trailing silent blocks : No
Null samples used in CRC calculations : Yes
Used interface : Native Win32 interface for Win NT & 2000

Used output format : Internal WAV Routines
Sample format : 44.100 Hz; 16 Bit; Stereo


TOC of the extracted CD

Track | Start | Length | Start sector | End sector
––––––––––––––––––––––––––––-
1 | 0:00.33 | 20:09.00 | 33 | 90707
2 | 20:09.33 | 15:33.00 | 90708 | 160682
3 | 35:42.33 | 15:34.62 | 160683 | 230794
4 | 51:17.20 | 7:53.13 | 230795 | 266282
5 | 59:10.33 | 12:33.37 | 266283 | 322794


Range status and errors

Selected range

Filename D:\Andrea\DOWNLOADS_AUDIO\Elgar - Symphony No. 2 & In the South (Solti, London Philharmonic Orch.).wav

Peak level 90.6 %
Extraction speed 5.8 X
Range quality 100.0 %
Test CRC CBD32BAB
Copy CRC CBD32BAB
Copy OK

No errors occurred

End of status report

–– CUETools DB Plugin V2.1.6

[CTDB TOCID: J..eY8dDHvq7DE.7iiFv3katd8Q-] found
Submit result: J..eY8dDHvq7DE.7iiFv3katd8Q- has been confirmed
Track | CTDB Status
1 | (58/75) Accurately ripped, or (1/75) differs in 177 samples @09:08:19-09:08:20
2 | (61/75) Accurately ripped
3 | (62/75) Accurately ripped
4 | (62/75) Accurately ripped
5 | (61/75) Accurately ripped


Exact Audio Copy V1.5 from 20. February 2020

EAC extraction logfile from 10. May 2020, 22:38

Sir Georg Solti & London Philharmonic Orchestra / Elgar Symphonies 1 & 2, Cockaigne - In the South

Used drive : hp DVDRW GUE1N Adapter: 1 ID: 0

Read mode : Secure
Utilize accurate stream : Yes
Defeat audio cache : No
Make use of C2 pointers : No

Read offset correction : 6
Overread into Lead-In and Lead-Out : No
Fill up missing offset samples with silence : Yes
Delete leading and trailing silent blocks : No
Null samples used in CRC calculations : Yes
Used interface : Native Win32 interface for Win NT & 2000

Used output format : Internal WAV Routines
Sample format : 44.100 Hz; 16 Bit; Stereo


TOC of the extracted CD

Track | Start | Length | Start sector | End sector
––––––––––––––––––––––––––––-
1 | 0:00.33 | 14:24.55 | 33 | 64887
2 | 14:25.13 | 17:49.62 | 64888 | 145124
3 | 32:15.00 | 7:07.45 | 145125 | 177194
4 | 39:22.45 | 12:14.60 | 177195 | 232304
5 | 51:37.30 | 11:38.03 | 232305 | 284657


Range status and errors

Selected range

Filename C:\Users\Utente\Music\DOWNLOADS_AUDIO\Sir Georg Solti & London Philharmonic Orchestra - Elgar Symphonies 1 & 2, Cockaigne - In the South.wav

Peak level 97.4 %
Extraction speed 3.3 X
Range quality 99.9 %
Test CRC FAD8E930
Copy CRC FAD8E930
Copy OK

No errors occurred


AccurateRip summary

Track 1 accurately ripped (confidence 21) [D9369005] (AR v2)
Track 2 accurately ripped (confidence 21) [D2988109] (AR v2)
Track 3 accurately ripped (confidence 21) [81DC7AFD] (AR v2)
Track 4 accurately ripped (confidence 21) [DF1A1AB8] (AR v2)
Track 5 accurately ripped (confidence 21) [9A79570E] (AR v2)

All tracks accurately ripped

End of status report

–– CUETools DB Plugin V2.1.6

[CTDB TOCID: LuxvTGpJCRozrZ124gLhtj.pSv4-] found
Submit result: LuxvTGpJCRozrZ124gLhtj.pSv4- has been confirmed
Track | CTDB Status
1 | (72/86) Accurately ripped
2 | (72/86) Accurately ripped
3 | (72/86) Accurately ripped
4 | (72/86) Accurately ripped
5 | (70/86) Accurately ripped

Georg Solti, London Philharmonic Orchestra - Elgar: Symphonies 1 & 2 (1995)

Thanks to the original releaser