Tags
Language
Tags
January 2023
Su Mo Tu We Th Fr Sa
1 2 3 4 5 6 7
8 9 10 11 12 13 14
15 16 17 18 19 20 21
22 23 24 25 26 27 28
29 30 31 1 2 3 4

George Maple - Lover (2017)

Posted By: SERTiL
George Maple - Lover (2017)

George Maple - Lover (2017)
EAC Rip | FLAC (tracks)+cue, log, m3u, front cover | 322 MB
Label: Virgin EMI Records ‎– CDV 3196 | Tracks: 20 | Time: 50:55 min
R&B, Soul, Pop

The epic-20 track effort is titled Lover. It features five already released singles including the title track, Rome Fortune-collab ‘Buried’ and stripclub-approved ‘Sticks and Horses’ with GoldLink. The tracklist reveals a few more collabs to look forward to including Philly MC Grande Marshall. It’s been three years since the London-based, Australian singer fully entered our consciousness with her Vacant Space EP. If the singles are anything to go by, the rest of the album will be well worth the wait.

Tracklist:
1. To Be A Lover (Intro) (feat. Axel Morgan & Trevor Abbott) (00:54)
2. Sticks And Horses (feat. GoldLink) (03:20)
3. LA Stripclub (00:14)
4. Romancandy (02:54)
5. I Like To Play With Him (Interlude) (feat. Sophie Debaere) (00:23)
6. Pain (02:51)
7. Buried (feat. What So Not & Rome Fortune) (03:26)
8. Lover (Interlude) (00:48)
9. Lover (03:25)
10. Harmonie du soir (Interlude) (feat. Sophie Debaere) (01:07)
11. Hold Me By The Waist (04:44)
12. Desire (Interlude) (feat. Alan Watts) (00:15)
13. Everybody Here Wants You (04:14)
14. Hero (03:41)
15. Slow Dancing (03:55)
16. Kryptonite (03:18)
17. Where You End And I Begin (feat. Grande Marshall) (03:39)
18. Like You Used To (02:07)
19. Sweeter Than I (feat. QTheMusic) (02:52)
20. Will You (02:58)

Exact Audio Copy V1.3 from 2. September 2016

EAC extraction logfile from 1. February 2018, 17:39

George Maple / Lover

Used drive : PIONEER DVD-RW DVR-216 Adapter: 1 ID: 0

Read mode : Secure
Utilize accurate stream : Yes
Defeat audio cache : Yes
Make use of C2 pointers : No

Read offset correction : 96
Overread into Lead-In and Lead-Out : No
Fill up missing offset samples with silence : Yes
Delete leading and trailing silent blocks : No
Null samples used in CRC calculations : Yes
Used interface : Native Win32 interface for Win NT & 2000
Gap handling : Appended to previous track

Used output format : User Defined Encoder
Selected bitrate : 1024 kBit/s
Quality : High
Add ID3 tag : No
Command line compressor : C:\Program Files (x86)\FLAC Frontend\tools\flac.exe
Additional command line options : -8 -e -p -V -T "ARTIST=%artist%" -T "TITLE=%title%" -T "ALBUM=%albumtitle%" -T "DATE=%year%" -T "TRACKNUMBER=%tracknr%" -T "GENRE=%genre%" -T "PERFORMER=%albuminterpret%" -T "COMPOSER=%composer%" %haslyrics%–tag-from-file=LYRICS="%lyricsfile%"%haslyrics% -T "ALBUMARTIST=%albumartist%" -T "DISCNUMBER=%cdnumber%" -T "TOTALDISCS=%totalcds%" -T "TOTALTRACKS=%numtracks%" -T "COMMENT=%comment%" %source% -o %dest%


TOC of the extracted CD

Track | Start | Length | Start sector | End sector
––––––––––––––––––––––––––––-
1 | 0:00.37 | 0:54.06 | 37 | 4092
2 | 0:54.43 | 3:19.67 | 4093 | 19084
3 | 4:14.35 | 0:13.57 | 19085 | 20116
4 | 4:28.17 | 2:54.08 | 20117 | 33174
5 | 7:22.25 | 0:22.52 | 33175 | 34876
6 | 7:45.02 | 2:50.62 | 34877 | 47688
7 | 10:35.64 | 3:25.73 | 47689 | 63136
8 | 14:01.62 | 0:48.00 | 63137 | 66736
9 | 14:49.62 | 3:24.48 | 66737 | 82084
10 | 18:14.35 | 1:07.31 | 82085 | 87140
11 | 19:21.66 | 4:43.59 | 87141 | 108424
12 | 24:05.50 | 0:14.49 | 108425 | 109523
13 | 24:20.24 | 4:13.42 | 109524 | 128540
14 | 28:33.66 | 3:40.63 | 128541 | 145103
15 | 32:14.54 | 3:55.24 | 145104 | 162752
16 | 36:10.03 | 3:17.42 | 162753 | 177569
17 | 39:27.45 | 3:38.56 | 177570 | 193975
18 | 43:06.26 | 2:07.35 | 193976 | 203535
19 | 45:13.61 | 2:52.03 | 203536 | 216438
20 | 48:05.64 | 3:00.15 | 216439 | 229953


Track 1

Filename D:\.EAC Rips\George Maple - Lover (2013) (CDV3196)[FLAC]\01 - To Be A Lover (Intro) .wav

Pre-gap length 0:00:02.49

Peak level 98.8 %
Extraction speed 2.0 X
Track quality 99.8 %
Test CRC 79D5C3E0
Copy CRC 79D5C3E0
Track not present in AccurateRip database
Copy OK

Track 2

Filename D:\.EAC Rips\George Maple - Lover (2013) (CDV3196)[FLAC]\02 - Sticks And Horses .wav

Peak level 98.8 %
Extraction speed 4.3 X
Track quality 100.0 %
Test CRC 79C7C203
Copy CRC 79C7C203
Track not present in AccurateRip database
Copy OK

Track 3

Filename D:\.EAC Rips\George Maple - Lover (2013) (CDV3196)[FLAC]\03 - LA Stripclub .wav

Pre-gap length 0:00:01.09

Peak level 71.5 %
Extraction speed 1.4 X
Track quality 100.0 %
Test CRC 4F068914
Copy CRC 4F068914
Track not present in AccurateRip database
Copy OK

Track 4

Filename D:\.EAC Rips\George Maple - Lover (2013) (CDV3196)[FLAC]\04 - Romancandy .wav

Peak level 99.3 %
Extraction speed 4.6 X
Track quality 100.0 %
Test CRC 3CF87CCC
Copy CRC 3CF87CCC
Track not present in AccurateRip database
Copy OK

Track 5

Filename D:\.EAC Rips\George Maple - Lover (2013) (CDV3196)[FLAC]\05 - I Like To Play With Him (Interlude) .wav

Pre-gap length 0:00:00.33

Peak level 49.5 %
Extraction speed 2.1 X
Track quality 100.0 %
Test CRC B86C5743
Copy CRC B86C5743
Track not present in AccurateRip database
Copy OK

Track 6

Filename D:\.EAC Rips\George Maple - Lover (2013) (CDV3196)[FLAC]\06 - Pain .wav

Peak level 98.6 %
Extraction speed 4.9 X
Track quality 100.0 %
Test CRC E145DE11
Copy CRC E145DE11
Track not present in AccurateRip database
Copy OK

Track 7

Filename D:\.EAC Rips\George Maple - Lover (2013) (CDV3196)[FLAC]\07 - Buried .wav

Pre-gap length 0:00:00.72

Peak level 98.6 %
Extraction speed 5.4 X
Track quality 100.0 %
Test CRC 0069D83E
Copy CRC 0069D83E
Track not present in AccurateRip database
Copy OK

Track 8

Filename D:\.EAC Rips\George Maple - Lover (2013) (CDV3196)[FLAC]\08 - Lover (Interlude) .wav

Peak level 99.7 %
Extraction speed 3.6 X
Track quality 100.0 %
Test CRC B5E23080
Copy CRC B5E23080
Track not present in AccurateRip database
Copy OK

Track 9

Filename D:\.EAC Rips\George Maple - Lover (2013) (CDV3196)[FLAC]\09 - Lover .wav

Peak level 99.7 %
Extraction speed 5.7 X
Track quality 100.0 %
Test CRC F02F19CD
Copy CRC F02F19CD
Track not present in AccurateRip database
Copy OK

Track 10

Filename D:\.EAC Rips\George Maple - Lover (2013) (CDV3196)[FLAC]\10 - Harmonie Du Soir (Interlude) .wav

Peak level 100.0 %
Extraction speed 4.3 X
Track quality 100.0 %
Test CRC 960805D4
Copy CRC 960805D4
Track not present in AccurateRip database
Copy OK

Track 11

Filename D:\.EAC Rips\George Maple - Lover (2013) (CDV3196)[FLAC]\11 - Hold Me By The Waist .wav

Peak level 98.6 %
Extraction speed 6.4 X
Track quality 100.0 %
Test CRC 85BDC8F6
Copy CRC 85BDC8F6
Track not present in AccurateRip database
Copy OK

Track 12

Filename D:\.EAC Rips\George Maple - Lover (2013) (CDV3196)[FLAC]\12 - Desire (Interlude) .wav

Pre-gap length 0:00:01.10

Peak level 85.1 %
Extraction speed 2.0 X
Track quality 100.0 %
Test CRC 60B5F0C9
Copy CRC 60B5F0C9
Track not present in AccurateRip database
Copy OK

Track 13

Filename D:\.EAC Rips\George Maple - Lover (2013) (CDV3196)[FLAC]\13 - Everybody Here Wants You .wav

Peak level 98.7 %
Extraction speed 6.6 X
Track quality 100.0 %
Test CRC B37C1105
Copy CRC B37C1105
Track not present in AccurateRip database
Copy OK

Track 14

Filename D:\.EAC Rips\George Maple - Lover (2013) (CDV3196)[FLAC]\14 - Hero .wav

Pre-gap length 0:00:00.17

Peak level 99.7 %
Extraction speed 6.8 X
Track quality 100.0 %
Test CRC 0E204070
Copy CRC 0E204070
Track not present in AccurateRip database
Copy OK

Track 15

Filename D:\.EAC Rips\George Maple - Lover (2013) (CDV3196)[FLAC]\15 - Slow Dancing .wav

Pre-gap length 0:00:02.53

Peak level 98.6 %
Extraction speed 7.1 X
Track quality 100.0 %
Test CRC D68D2C13
Copy CRC D68D2C13
Track not present in AccurateRip database
Copy OK

Track 16

Filename D:\.EAC Rips\George Maple - Lover (2013) (CDV3196)[FLAC]\16 - Kryptonite .wav

Peak level 98.6 %
Extraction speed 6.2 X
Track quality 99.9 %
Test CRC 92632C36
Copy CRC 92632C36
Track not present in AccurateRip database
Copy OK

Track 17

Filename D:\.EAC Rips\George Maple - Lover (2013) (CDV3196)[FLAC]\17 - Where You End And I Begin .wav

Peak level 98.6 %
Extraction speed 7.4 X
Track quality 100.0 %
Test CRC 1A9DC678
Copy CRC 1A9DC678
Track not present in AccurateRip database
Copy OK

Track 18

Filename D:\.EAC Rips\George Maple - Lover (2013) (CDV3196)[FLAC]\18 - Like You Used To .wav

Pre-gap length 0:00:00.97

Peak level 98.8 %
Extraction speed 5.6 X
Track quality 99.9 %
Test CRC CF5DA3EF
Copy CRC CF5DA3EF
Track not present in AccurateRip database
Copy OK

Track 19

Filename D:\.EAC Rips\George Maple - Lover (2013) (CDV3196)[FLAC]\19 - Sweeter Than I .wav

Pre-gap length 0:00:01.78

Peak level 98.6 %
Extraction speed 7.4 X
Track quality 100.0 %
Test CRC 7ACC92E9
Copy CRC 7ACC92E9
Track not present in AccurateRip database
Copy OK

Track 20

Filename D:\.EAC Rips\George Maple - Lover (2013) (CDV3196)[FLAC]\20 - Will You .wav

Peak level 98.8 %
Extraction speed 7.6 X
Track quality 100.0 %
Test CRC A856CE07
Copy CRC A856CE07
Track not present in AccurateRip database
Copy OK


None of the tracks are present in the AccurateRip database

No errors occurred

End of status report

–– CUETools DB Plugin V2.1.6

[CTDB TOCID: JBtFNFYp.2abidbHcLqmDqqO0Iw-] found
Submit result: already submitted
Track | CTDB Status
1 | (1/1) Accurately ripped
2 | (1/1) Accurately ripped
3 | (1/1) Accurately ripped
4 | (1/1) Accurately ripped
5 | (1/1) Accurately ripped
6 | (1/1) Accurately ripped
7 | (1/1) Accurately ripped
8 | (1/1) Accurately ripped
9 | (1/1) Accurately ripped
10 | (1/1) Accurately ripped
11 | (1/1) Accurately ripped
12 | (1/1) Accurately ripped
13 | (1/1) Accurately ripped
14 | (1/1) Accurately ripped
15 | (1/1) Accurately ripped
16 | (1/1) Accurately ripped
17 | (1/1) Accurately ripped
18 | (1/1) Accurately ripped
19 | (1/1) Accurately ripped
20 | (1/1) Accurately ripped


==== Log checksum C3F730942828D61E240110218386F0EAF7A0B39135E68EF6D7D64CB9C373C48A ====


Thanks to the Original customer.