Tags
Language
Tags

George Petrou, Orchestra of Patras - Handel: Tamerlano (2007)

Posted By: ArlegZ
George Petrou, Orchestra of Patras - Handel: Tamerlano (2007)

George Petrou, Orchestra of Patras - Handel: Tamerlano (2007)
EAC | FLAC | Image (Cue & Log) ~ 915 Mb | Total time: 66:23+60:52+65:17 | Scans included
Classical | Label: MDG | # 609 1457-2 | Recorded: 2006

We’re lucky enough to be having rather a clutch of important Handel recordings emerge at the moment. This latest is the first recording to use the version of Tamerlano performed at its premiere. And George Patras’s Greek forces do the opera proud. In a real ensemble achievement, Nicholas Spanos is outstanding in the title-role, surmounting the vocal hurdles with ease.
- Gramophone

Performer:
Tamerlano - Nicholas Spanos
Andronico - Mary-Ellen Nesi
Bajazet - Tassis Christoyannis
Asteria - Mata Katsuli
Irene - Irina Karaianni
Leone - Petros Magoulas
Orchestra of Patras
Сonductor - George Petrou

Track List:
CD1:
01. Ouverture: Allegro
02. Adagio
03. Atto I. Sinfonia
04. Recitativo: Esci, esci o Signore (Andronico)
05. Sinfonia
06. Recitativo: Prence, lo so (Bajazete, Andronico)
07. Aria: Forte, e lieto a morte Andrei (Bajazete)
08. Recitativo: Non si perda di vista ll disperato (Andronico, Tamerlano)
09. Aria: Vuo dar pace a un' alma altera (Tamerlano)
10. Recitativo: Il Tartaro ama Asteria (Andronico)
11. Aria: Bella Asteria, il tuo cor mi defenda (Andronico)
12. Recitativo: Il fortunato Andronico ritorna (Asteria, Tamerlano)
13. Aria: Dammi pace, o volto Amato (Tamerlano)
14. Recitativo: Serve Asteria di prezzo al Greco infido (Asteria)
15. Aria: S'ei non mi vuol amar (Asteria)
16. Recitativo: Non ascolto piu nulla (Bajazete, Andronico, Asteria)
17. Aria: Ciel e terra armi di sdegno (Bajazete)
18. Recitativo: Asteria non parlate? (Andronico, Asteria)
19. Aria: Deh lasciatemi il nemico (Asteria)
20. Recitativo: Cosi la sposa il Tamerlano accoglie? (Andronico, Irene, Leone)
21. Aria: Dal crudel che m'ha tradita (Irene)
22. Accompagnato: Chi vide mai piu, sventurato amante? (Andronico)
23. Aria: Benche mi sprezzi (Andronico)
CD2:
01. Atto II. Recitativo: Amico, tengo un testimon fedele (Tamerlano, Andronico)
02. Aria: Bella gara, che faronno (Tamerlano)
03. Recitativo: Qui l'infedel! cogliamo (Asteria, Andronico)
04. Aria: Non e piu tempo, no (Asteria)
05. Accompagnato: Ah no! Dove trascorri, idolo mio? (Andronico)
06. Aria: Cerco in vano di placare (Andronico)
07. Recitativo: Signor, vergine illustre (Leone, Tamerlano, Irene, Asteria)
08. Aria: Par che mi nasce in seno (Irene)
09. Resitativo: Veggio da questi amori (Leone)
10. Aria: Amor da guerra e pace (Leone)
11. Recitativo: Dov'e mia figlia, Andronico? (Bajazete, Andronico)
12. Aria: A suoi piedi Padre esangue (Bajazete)
13. Recitativo: Se Asteria mi tradisce al certo io voglio (Andronico)
14. Aria: Piu d'una tigre altero (Andronico)
15. Recitativo: Al soglio, Al soglio, oh bella! (Tamerlano, Asteria, Bajazete, Andronico)
16. Recitativo ed Acc.: Odi, perfida (Bajazete, Andronico, Asteria, Tamerlano, Irene)
17. Terzetto: Voglio strage (Asteria, Tamerlano, Bajazete)
18. Recitativo: Padre, dimmi, son piu l'indegna figlia? (Asteria)
19. Arietta: No, no il tuo sdegno mi placo (Bajazete)
20. Recitativo: Andronico, son piu l'infida amante? (Asteria)
21. Arietta: No, che del tuo gran cor (Andronico)
22. Recitativo: Amica, son quella superba donna? (Asteria)
23. Arietta: No, che sei tanto costante (Irene)
24. Recitativo: Si, si, son vendicata (Asteria)
25. Aria: Se potessi un di placare (Asteria)
CD3:
01. Recitativo: Figlia, siam rei, io di schernito sdegno (Bajazete, Asteria)
02. Aria: Cor di padre, e cor d'amante (Asteria)
03. Recitativo: Andronico, il mio amore (Tamerlano, Andronico, Asteria, Bajazete)
04. Aria: A dispetto (Tamerlano)
05. Recitativo: Figlia, con atto vil tutta perdesti (Bajazete, Asteria, Andronico, Leone)
06. Duetto: Vivo in te mio caro bene (Asteria, Andronico)
07. Recitativo: Reina, e vuoto il trono (Leone, Irene)
08. Aria: Crudel piu non son io (Irene)
09. Recitativo: Eccoti, Bajazete (Tamerlano, Bajazete, Andronico)
10. Aria: Se non mi rendi il mio Tesoro (Andronico)
11. Recitativo: Eccomi, che si chiede? (Asteria, Tamerlano, Andronico, Bajazete, Irene)
12. Accompagnato: Padre, amante, di voi chi vuole il metro (Asteria)
13. Arioso e Recitativo: Folle sei, se lo consenti (Asteria, Andronico, Bajazete, Tamerlano, Irene)
14. Accompagnato: E il soffrirete, d'onestade o Numi? (Bajazete)
15. Aria: Empio per farti guerra (Bajazete)
16. Recitativo: Signor, fra tante cure (Erene, Tamerlano, Leone, Andronico, Asteria)
17. Recitativo e Accompagnato: Oh per me lieto, avventuroso giorno! (Irene, Bajazete, Tamerlano, Asteria)
18. Arioso: Figlia mia, non pianger, no (Bajazete)
19. Accompagnato: Tu, spietato, il vedrai (misera figlia!) (Bajazete)
20. Recitativo: Barbaro! or manca solo il morir mio (Asteria, Tamerlano, Andronico)
21. Coro: D'atra notte gia mirasi a scorno (Irene, Andronico, Tamerlano, Leone)
22. Appendix. Recitativo: Principessa infelice (Leone)
23. Aria: Nel mondo e nell' abisso (Leone)


Exact Audio Copy V1.3 from 2. September 2016

EAC extraction logfile from 9. March 2019, 12:43

George Petrou, Orchestra of Patras / Handel - Tamerlano CD1

Used drive : HL-DT-STDVDRAM GH24NS95 Adapter: 1 ID: 0

Read mode : Secure
Utilize accurate stream : Yes
Defeat audio cache : Yes
Make use of C2 pointers : No

Read offset correction : 6
Overread into Lead-In and Lead-Out : No
Fill up missing offset samples with silence : Yes
Delete leading and trailing silent blocks : No
Null samples used in CRC calculations : Yes
Used interface : Native Win32 interface for Win NT & 2000

Used output format : User Defined Encoder
Selected bitrate : 128 kBit/s
Quality : High
Add ID3 tag : No
Command line compressor : C:\Program Files\Exact Audio Copy\FLAC\FLAC.EXE
Additional command line options : -V -8 -T "Date=%year%" -T "Genre=%genre%" %source%


TOC of the extracted CD

Track | Start | Length | Start sector | End sector
––––––––––––––––––––––––––––-
1 | 0:00.00 | 3:00.71 | 0 | 13570
2 | 3:00.71 | 1:53.21 | 13571 | 22066
3 | 4:54.17 | 0:49.22 | 22067 | 25763
4 | 5:43.39 | 0:07.62 | 25764 | 26350
5 | 5:51.26 | 0:48.14 | 26351 | 29964
6 | 6:39.40 | 1:53.33 | 29965 | 38472
7 | 8:32.73 | 3:51.15 | 38473 | 55812
8 | 12:24.13 | 3:10.53 | 55813 | 70115
9 | 15:34.66 | 4:08.71 | 70116 | 88786
10 | 19:43.62 | 0:42.50 | 88787 | 91986
11 | 20:26.37 | 6:20.46 | 91987 | 120532
12 | 26:47.08 | 2:29.11 | 120533 | 131718
13 | 29:16.19 | 3:52.08 | 131719 | 149126
14 | 33:08.27 | 0:34.23 | 149127 | 151699
15 | 33:42.50 | 6:14.61 | 151700 | 179810
16 | 39:57.36 | 2:47.16 | 179811 | 192351
17 | 42:44.52 | 3:23.28 | 192352 | 207604
18 | 46:08.05 | 1:14.51 | 207605 | 213205
19 | 47:22.56 | 6:06.47 | 213206 | 240702
20 | 53:29.28 | 1:48.22 | 240703 | 248824
21 | 55:17.50 | 3:00.41 | 248825 | 262365
22 | 58:18.16 | 1:03.74 | 262366 | 267164
23 | 59:22.15 | 6:58.44 | 267165 | 298558


Range status and errors

Selected range

Filename C:\Program Files\Exact Audio Copy\Flac\Handel - Tamerlano CD1.wav

Peak level 99.7 %
Extraction speed 8.0 X
Range quality 100.0 %
Test CRC F9E166D9
Copy CRC F9E166D9
Copy OK

No errors occurred

End of status report

==== Log checksum 93413CF7416935E9FD881C63AF0744511A478DE83961B72C28FEA4F587A52D3E ====


Exact Audio Copy V1.3 from 2. September 2016

EAC extraction logfile from 9. March 2019, 13:14

George Petrou, Orchestra of Patras / Handel - Tamerlano CD2

Used drive : HL-DT-STDVDRAM GH24NS95 Adapter: 1 ID: 0

Read mode : Secure
Utilize accurate stream : Yes
Defeat audio cache : Yes
Make use of C2 pointers : No

Read offset correction : 6
Overread into Lead-In and Lead-Out : No
Fill up missing offset samples with silence : Yes
Delete leading and trailing silent blocks : No
Null samples used in CRC calculations : Yes
Used interface : Native Win32 interface for Win NT & 2000

Used output format : User Defined Encoder
Selected bitrate : 128 kBit/s
Quality : High
Add ID3 tag : No
Command line compressor : C:\Program Files\Exact Audio Copy\FLAC\FLAC.EXE
Additional command line options : -V -8 -T "Date=%year%" -T "Genre=%genre%" %source%


TOC of the extracted CD

Track | Start | Length | Start sector | End sector
––––––––––––––––––––––––––––-
1 | 0:00.00 | 1:25.04 | 0 | 6378
2 | 1:25.04 | 4:40.62 | 6379 | 27440
3 | 6:05.66 | 1:52.48 | 27441 | 35888
4 | 7:58.39 | 2:18.33 | 35889 | 46271
5 | 10:16.72 | 0:47.38 | 46272 | 49834
6 | 11:04.35 | 6:07.12 | 49835 | 77371
7 | 17:11.47 | 3:02.15 | 77372 | 91036
8 | 20:13.62 | 6:31.25 | 91037 | 120386
9 | 26:45.12 | 0:16.55 | 120387 | 121641
10 | 27:01.67 | 3:50.58 | 121642 | 138949
11 | 30:52.50 | 0:53.59 | 138950 | 142983
12 | 31:46.34 | 6:43.69 | 142984 | 173277
13 | 38:30.28 | 0:22.36 | 173278 | 174963
14 | 38:52.64 | 3:40.51 | 174964 | 191514
15 | 42:33.40 | 4:47.17 | 191515 | 213056
16 | 47:20.57 | 3:29.57 | 213057 | 228788
17 | 50:50.39 | 1:13.25 | 228789 | 234288
18 | 52:03.64 | 0:06.15 | 234289 | 234753
19 | 52:10.04 | 1:36.64 | 234754 | 242017
20 | 53:46.68 | 0:07.12 | 242018 | 242554
21 | 53:54.05 | 1:21.60 | 242555 | 248689
22 | 55:15.65 | 0:06.63 | 248690 | 249202
23 | 55:22.53 | 1:19.57 | 249203 | 255184
24 | 56:42.35 | 0:18.06 | 255185 | 256540
25 | 57:00.41 | 3:49.14 | 256541 | 273729


Range status and errors

Selected range

Filename C:\Program Files\Exact Audio Copy\Flac\Handel - Tamerlano CD2.wav

Peak level 99.2 %
Extraction speed 7.9 X
Range quality 100.0 %
Test CRC 7B32C38E
Copy CRC 7B32C38E
Copy OK

No errors occurred

End of status report

==== Log checksum 4F88DD00080873CADEB59018AE8E25706894D6341D8C459272178F6A6EE19D60 ====


Exact Audio Copy V1.3 from 2. September 2016

EAC extraction logfile from 9. March 2019, 13:35

George Petrou, Orchestra of Patras / Handel - Tamerlano CD3

Used drive : HL-DT-STDVDRAM GH24NS95 Adapter: 1 ID: 0

Read mode : Secure
Utilize accurate stream : Yes
Defeat audio cache : Yes
Make use of C2 pointers : No

Read offset correction : 6
Overread into Lead-In and Lead-Out : No
Fill up missing offset samples with silence : Yes
Delete leading and trailing silent blocks : No
Null samples used in CRC calculations : Yes
Used interface : Native Win32 interface for Win NT & 2000

Used output format : User Defined Encoder
Selected bitrate : 128 kBit/s
Quality : High
Add ID3 tag : No
Command line compressor : C:\Program Files\Exact Audio Copy\FLAC\FLAC.EXE
Additional command line options : -V -8 -T "Date=%year%" -T "Genre=%genre%" %source%


TOC of the extracted CD

Track | Start | Length | Start sector | End sector
––––––––––––––––––––––––––––-
1 | 0:00.00 | 1:50.26 | 0 | 8275
2 | 1:50.26 | 8:04.35 | 8276 | 44610
3 | 9:54.61 | 3:56.64 | 44611 | 62374
4 | 13:51.50 | 4:47.40 | 62375 | 83939
5 | 18:39.15 | 2:31.35 | 83940 | 95299
6 | 21:10.50 | 7:08.38 | 95300 | 127437
7 | 28:19.13 | 1:05.60 | 127438 | 132372
8 | 29:24.73 | 2:43.49 | 132373 | 144646
9 | 32:08.47 | 1:26.24 | 144647 | 151120
10 | 33:34.71 | 2:26.00 | 151121 | 162070
11 | 36:00.71 | 2:39.73 | 162071 | 174068
12 | 38:40.69 | 0:48.43 | 174069 | 177711
13 | 39:29.37 | 2:18.25 | 177712 | 188086
14 | 41:47.62 | 0:16.30 | 188087 | 189316
15 | 42:04.17 | 3:42.36 | 189317 | 206002
16 | 45:46.53 | 1:47.36 | 206003 | 214063
17 | 47:34.14 | 3:09.20 | 214064 | 228258
18 | 50:43.34 | 1:50.26 | 228259 | 236534
19 | 52:33.60 | 2:53.63 | 236535 | 249572
20 | 55:27.48 | 1:02.67 | 249573 | 254289
21 | 56:30.40 | 2:54.65 | 254290 | 267404
22 | 59:25.30 | 0:45.08 | 267405 | 270787
23 | 60:10.38 | 5:04.64 | 270788 | 293651


Range status and errors

Selected range

Filename C:\Program Files\Exact Audio Copy\Flac\Handel - Tamerlano CD3.wav

Peak level 95.5 %
Extraction speed 8.0 X
Range quality 100.0 %
Test CRC 1F7095DA
Copy CRC 1F7095DA
Copy OK

No errors occurred

End of status report

==== Log checksum C7D75368DA09CFB6CB82B81F63A83333BD7F548AD4C3B2C70CCAA7366691D382 ====

George Petrou, Orchestra of Patras - Handel: Tamerlano (2007)