Subcategories

Gerry Mulligan All-Star Tribute Band - Thank You, Gerry! (1998)

Posted By: PCWhizzkid
Gerry Mulligan All-Star Tribute Band - Thank You, Gerry! (1998)

Gerry Mulligan All-Star Tribute Band - Thank You, Gerry! (1998)
EAC V1.0 beta 1 | FLAC ( Secure Mode ) Image + Cue + Log - 422 MB
FULL SCANS - 40 MB (600dpi) + 3% Recovery
Genre: Jazz | Label: Arkadia Jazz | Catalogue No: 71191
Wupload & Filesonic

Perhaps the greatest Baritone sax player in jazz history, Gerry Mulligan is honored on this extraordinary album by a group of prominent musicians who either played alongside the legend, or grew up under the influence of his indelible musical shadow.When former Gerry Mulligan sideman Ted Rosenthal assembled a sextet to record his new arrangements of 11 tunes written by or associated with the late Mulligan, he made a clever and unusual decision: there would be no baritone saxophonist. This makes for a most effective tribute.No player in jazz has been more associated with the baritone than Mulligan, and anyone who attempted to step into his shoes would invariably come up wanting.
The decision to feature other instruments puts the collection's focus on Mulligan's true genius for songwriting and arrangement. Rosenthal's second brilliant stroke was to draft tenor Lee Konitz, a longtime friend who seems to understand Mulligan's signature style–melodic yet challenging, pushing the boundaries of the melody yet never destroying it–almost instinctively. Though tenor and baritone are two very different instruments, one consistently finds oneself thinking, "Yes, that's just how Gerry would have played it." There is no higher compliment.Highly Recommended.


Personnel:

Lee Konitz (alto saxophone); Randy Brecker (trumpet, flugelhorn); Bob Brookmeyer (valve trombone); Ted Rosenthal (piano); Dean Johnson (bass); Ron Vincent (drums).


TRACK LIST:

1. Bark for Barksdale
2. Theme for Jobim
3. Elevation
4. My Funny Valentine
5. Rocker
6. Walkin' Shoes
7. Moonlight in Vermont
8. Line for Lyons
9. Festive Minor
10. Bernie's Tune
11. Curtains


Recording Time 68 minutes


Exact Audio Copy V1.0 beta 1 from 15. November 2010

EAC extraction logfile from 14. June 2011, 14:06

Gerry Mulligan All-Star Tribute Band / Thank You, Gerry!

Used drive : HL-DT-STDVDRAM GH22NS40 Adapter: 4 ID: 0

Read mode : Secure
Utilize accurate stream : Yes
Defeat audio cache : Yes
Make use of C2 pointers : No

Read offset correction : 667
Overread into Lead-In and Lead-Out : No
Fill up missing offset samples with silence : Yes
Delete leading and trailing silent blocks : No
Null samples used in CRC calculations : Yes
Used interface : Native Win32 interface for Win NT & 2000

Used output format : User Defined Encoder
Selected bitrate : 1024 kBit/s
Quality : High
Add ID3 tag : No
Command line compressor : C:\Program Files (x86)\Exact Audio Copy\FLAC\FLAC.EXE
Additional command line options : -6 -V -T "ARTIST=%a" -T "TITLE=%t" -T "ALBUM=%g" -T "DATE=%y" -T "TRACKNUMBER=%n" -T "GENRE=%m" -T "COMMENT=%e" %j–picture="%i"%j %s -o %d


TOC of the extracted CD

Track | Start | Length | Start sector | End sector
––––––––––––––––––––––––––––-
1 | 0:00.30 | 5:09.22 | 30 | 23226
2 | 5:09.52 | 6:06.50 | 23227 | 50726
3 | 11:16.27 | 4:10.50 | 50727 | 69526
4 | 15:27.02 | 8:37.65 | 69527 | 108366
5 | 24:04.67 | 5:30.01 | 108367 | 133117
6 | 29:34.68 | 7:29.22 | 133118 | 166814
7 | 37:04.15 | 5:16.67 | 166815 | 190581
8 | 42:21.07 | 5:58.19 | 190582 | 217450
9 | 48:19.26 | 6:39.27 | 217451 | 247402
10 | 54:58.53 | 5:57.37 | 247403 | 274214
11 | 60:56.15 | 7:28.73 | 274215 | 307887


Range status and errors

Selected range

Filename H:\Gerry Mulligan All-Star Tribute Band - Thank You, Gerry!.wav

Peak level 100.0 %
Extraction speed 0.2 X
Range quality 100.0 %
Copy CRC 158CBF48
Copy OK

No errors occurred


AccurateRip summary

Track 1 not present in database
Track 2 not present in database
Track 3 not present in database
Track 4 not present in database
Track 5 not present in database
Track 6 not present in database
Track 7 not present in database
Track 8 not present in database
Track 9 not present in database
Track 10 not present in database
Track 11 not present in database

None of the tracks are present in the AccurateRip database

End of status report

==== Log checksum 26631C07ABA2C81EA0E3321655F93A97EC9FA6FDF7337C6957F73C37F2B2E027 ====



Gerry Mulligan All-Star Tribute Band - Thank You, Gerry! (1998)



Gerry Mulligan All-Star Tribute Band - Thank You, Gerry! (1998)