Golden Earring - The Naked Truth (1992) [CD & DVD]

Posted By: v3122
Golden Earring -  The Naked Truth (1992) [CD & DVD]

Golden Earring - The Naked Truth (1992)
EAC | Flac(Image) + Cue + Log & MP3 CBR 320Kbps
Columbia, COL 472619 2 | ~ 457 or 166 Mb | Scans(jpg) -> 6.26 Mb
DVD5: PAL 16:9 (720x576) VBR | AC3 2ch, 224Kbps & 5ch, 448Kbps -> 4.23 Gb
Psychedelic Rock / Classic Rock / Beat / Pop Rock

The Naked Truth is a live album by Dutch hard rock band Golden Earring, released in 1992. All songs were performed with acoustic instruments. The album has been released over the decade with additional tracks under the titles The Complete Naked Truth and Fully Naked…

~ wiki
Golden Earring -  The Naked Truth (1992) [CD & DVD]


Golden Earring - The Naked Truth (1992):

Golden Earring -  The Naked Truth (1992) [CD & DVD]

Tracklist CD:

01. Introduction [0:01:04.02]
02. Jangalene [0:02:46.13]
03. Another 45 Miles [0:03:52.05]
04. Mad Love's Comin' [0:07:29.62]
05. Why Do I? [0:04:24.30]
06. I Can't Sleep Without You [0:03:27.25]
07. Weekend Love [0:02:40.35]
08. Vanilla Queen [0:04:46.20]
09. Twilight Zone [0:09:13.15]
10. One Shot Away From Paradise [0:03:58.48]
11. Long Blond Animal [0:05:22.35]
12. Pouring My Heart Out Again [0:04:18.17]
13. Radar Love [0:07:42.38]
14. Eight Miles High [0:04:42.55]
15. The Naked Truth [0:04:20.12]

Exact Audio Copy V1.0 beta 3 from 29. August 2011

Отчёт EAC об извлечении, выполненном 24. октября 2015, 16:43

Golden Earring / The Naked Truth -Live-

Дисковод: TSSTcorpCDDVDW SH-224DB Adapter: 1 ID: 0

Режим чтения : Достоверность
Использование точного потока : Да
Отключение кэша аудио : Да
Использование указателей C2 : Нет

Коррекция смещения при чтении : 6
Способность читать области Lead-in и Lead-out : Нет
Заполнение пропущенных сэмплов тишиной : Да
Удаление блоков с тишиной в начале и конце : Нет
При вычислениях CRC использовались нулевые сэмплы : Да
Интерфейс : Встроенный Win32-интерфейс для Win NT/2000

Выходной формат : Пользовательский кодировщик
Выбранный битрейт : 768 kBit/s
Качество : Высокий
Добавление ID3-тега : Нет
Утилита сжатия : C:\Program Files\Exact Audio Copy\Flac\flac.exe
Дополнительные параметры : -V -8 -T "Date=%year%" -T "Genre=%genre%" %source%


TOC извлечённого CD

Трек | Старт | Длительность | Начальный сектор | Конечный сектор
––––––––––––––––––––––––––––––––––-
1 | 0:00.00 | 1:04.02 | 0 | 4801
2 | 1:04.02 | 2:46.13 | 4802 | 17264
3 | 3:50.15 | 3:52.05 | 17265 | 34669
4 | 7:42.20 | 7:29.62 | 34670 | 68406
5 | 15:12.07 | 4:24.30 | 68407 | 88236
6 | 19:36.37 | 3:27.25 | 88237 | 103786
7 | 23:03.62 | 2:40.35 | 103787 | 115821
8 | 25:44.22 | 4:46.20 | 115822 | 137291
9 | 30:30.42 | 9:13.15 | 137292 | 178781
10 | 39:43.57 | 3:58.48 | 178782 | 196679
11 | 43:42.30 | 5:22.35 | 196680 | 220864
12 | 49:04.65 | 4:18.17 | 220865 | 240231
13 | 53:23.07 | 7:42.38 | 240232 | 274919
14 | 61:05.45 | 4:42.55 | 274920 | 296124
15 | 65:48.25 | 4:20.12 | 296125 | 315636


Характеристики диапазона извлечения и сообщения об ошибках

Выбранный диапазон

Имя файла D:\lo$$le$$\golden earring'92-live\Golden Earring - The Naked Truth -Live-.wav

Пиковый уровень 83.8 %
Скорость извлечения 8.5 X
Качество диапазона 100.0 %
CRC теста AEB3222F
CRC копии AEB3222F
Копирование… OK

Ошибок не произошло

Конец отчёта

==== Контрольная сумма отчёта 7B63CE041228C4D46B7B32935EE09B852149A0502DBC8BA2E6A5BB1010CD8407 ====


Golden Earring -  The Naked Truth (1992) [CD & DVD]

Tracklist DVD:

1. Back Home
2. Another 45 Miles
3. Mad Love's Comin'
4. Just A Little Bit Of Peace In My Heart
5. Why Do I
6. Weekend Love
7. Going To The Run
8. Twilight Zone
9. I Can't Sleep Without You
10. Vanilla Queen
11. One Shot Away From Paradise
12. Pourin' My Heart Out Again
13. Long Blond Animal
14. Radar Love
15. Eight Miles High
16. The Naked Truth
17. Jangalene
18. Don't Stop The Show
19. When The Lady Smiles

Title: Golden Earring 1992 - The Naked Truth - DVD
Size: 4.01 Gb ( 4 204 684,00 KBytes ) - DVD-5
Enabled regions: 1, 2, 3, 4, 5, 6, 7, 8

VTS_01 :
Play Length: 00:00:31
Video: PAL 16:9 (720x576) VBR, Auto Letterboxed
Audio:
Nederlands (Dolby AC3, 2 ch)

VTS_02 :
Play Length: 01:34:59+00:00:00
Video: PAL 16:9 (720x576) VBR, Auto Letterboxed
Audio:
Nederlands (Dolby AC3, 5 ch)
Nederlands (Dolby AC3, 2 ch)

VTS_03 :
Play Length: 00:03:40+00:03:39+00:04:42
Video: PAL 16:9 (720x576) VBR, Auto Letterboxed
Audio:
Nederlands (Dolby AC3, 2 ch)
Subtitles:
Nederlands

VTS_04 :
Play Length: 00:00:00+00:00:00+00:00:00+00:00:00+00:00:00+00:00:00+00:00:00+00:00:00
Video: PAL 16:9 (720x576) VBR, Auto Letterboxed
Subtitles:
Nederlands

VTS_05 :
Play Length: 00:00:22+00:00:33+00:00:45+00:00:32+00:00:27+00:00:35+00:00:39+00:00:40+00:00:44+00:00:41+00:00:43+00:00:22+00:00:34+00:00:31+00:00:33+00:00:51+00:00:24+00:00:40+00:00:32
Video: PAL 16:9 (720x576) VBR, Auto Letterboxed
Audio:
Nederlands (Dolby AC3, 2 ch)
Subtitles:
Nederlands

VTS_06 :
Play Length: 00:00:00
Video: PAL 16:9 (720x576) VBR, Auto Letterboxed


Golden Earring -  The Naked Truth (1992) [CD & DVD]

Golden Earring -  The Naked Truth (1992) [CD & DVD]

Golden Earring -  The Naked Truth (1992) [CD & DVD]

Golden Earring -  The Naked Truth (1992) [CD & DVD]

Golden Earring -  The Naked Truth (1992) [CD & DVD]

Golden Earring -  The Naked Truth (1992) [CD & DVD]

Golden Earring -  The Naked Truth (1992) [CD & DVD]

All thanks go to vicpalbk2006 & CHKA1961

Golden Earring in my Blog

Download Golden Earring - The Naked Truth (1992):