Subcategories

Grand Funk Railroad - 10 Great Songs: 20th Century Masters-The Millennium Collection (2014)

Posted By: v3122
Grand Funk Railroad - 10 Great Songs: 20th Century Masters-The Millennium Collection (2014)

Grand Funk Railroad - 10 Great Songs: 20th Century Masters-The Millennium Collection (2014)
EAC | Flac(Image) + Cue + Log & MP3 CBR 320Kbps
Capitol / Universal Music, B0020390-02 | ~ 339 or 121 Mb | Scans Included
Rock / Hard Rock / Blues Rock

Millennium Collection: 20th Century Masters spotlights Grand Funk Railroad's early- to mid-'70s radio hits including "We're an American Band," "Some Kind of Wonderful," and "Bad Time."

by Al Campbell, AMG
Grand Funk Railroad - 10 Great Songs: 20th Century Masters-The Millennium Collection (2014):

Grand Funk Railroad - 10 Great Songs: 20th Century Masters-The Millennium Collection (2014)

Tracklist:

01. We're An American Band (D.Brewer) 02:26
02. Some Kind Of Wonderful (W.Ellison) 03:23
03. The Loco-Motion (C.King, G.Goffin) 02:47
04. Bad Time (M.Farner) 02:57
05. Shinin' On (M.Farner, D.Brewer) 05:56
06. Walk Like A Man (You Can Call Me Your Man) (M.Farner, D.Brewer) 04:04
07. Footstompin' Music (M.Farner) 03:46
08. Mean Mistreater (M.Farner) 04:26
09. Rock & Roll Soul (M.Farner) 03:30
10. Closer To Home (I'm Your Captain) (M.Farner) 09:57

Tracks 1,6 (1973)
Tracks 2-5 (1974)
Track 7 (1971)
Tracks 8,10 (1970)
Track 9 (1972)


Exact Audio Copy V0.99 prebeta 5 from 4. May 2009

EAC extraction logfile from 7. September 2014, 19:16

Grand Funk Railroad / The Millennium Collection: 20th Century Masters

Used drive : hp CDDVDW SH-216BB Adapter: 0 ID: 0

Read mode : Secure
Utilize accurate stream : Yes
Defeat audio cache : Yes
Make use of C2 pointers : No

Read offset correction : 6
Overread into Lead-In and Lead-Out : No
Fill up missing offset samples with silence : Yes
Delete leading and trailing silent blocks : No
Null samples used in CRC calculations : Yes
Used interface : Native Win32 interface for Win NT & 2000

Used output format : Monkey's Audio Lossless Encoder
Selected bitrate : High Lossless Compression
Quality : High
Add ID3 tag : No
Command line compressor : C:\Program Files (x86)\Monkey's Audio\MAC.exe


TOC of the extracted CD

Track | Start | Length | Start sector | End sector
––––––––––––––––––––––––––––-
1 | 0:00.00 | 3:26.63 | 0 | 15512
2 | 3:26.63 | 3:23.03 | 15513 | 30740
3 | 6:49.66 | 2:47.63 | 30741 | 43328
4 | 9:37.54 | 2:57.27 | 43329 | 56630
5 | 12:35.06 | 5:56.27 | 56631 | 83357
6 | 18:31.33 | 4:04.30 | 83358 | 101687
7 | 22:35.63 | 3:46.53 | 101688 | 118690
8 | 26:22.41 | 4:26.33 | 118691 | 138673
9 | 30:48.74 | 3:30.63 | 138674 | 154486
10 | 34:19.62 | 9:57.63 | 154487 | 199324


Range status and errors

Selected range

Filename C:\Users\Arthur\Desktop\Grand Funk Railroad - The Millennium Collection 20th Century Masters.wav

Peak level 97.7 %
Range quality 100.0 %
Test CRC F9E03C7C
Copy CRC F9E03C7C
Copy OK

No errors occurred


AccurateRip summary

Track 1 accurately ripped (confidence 3) [F3F4C006]
Track 2 accurately ripped (confidence 3) [9FA8346E]
Track 3 accurately ripped (confidence 3) [EF042965]
Track 4 accurately ripped (confidence 3) [70CA57C4]
Track 5 accurately ripped (confidence 3) [4D378116]
Track 6 accurately ripped (confidence 3) [017914B6]
Track 7 accurately ripped (confidence 3) [278BFA8B]
Track 8 accurately ripped (confidence 3) [1255B8C5]
Track 9 accurately ripped (confidence 3) [1EE3BA83]
Track 10 accurately ripped (confidence 3) [AA31948D]

All tracks accurately ripped

End of status report

foobar2000 1.2.9 / Dynamic Range Meter 1.1.1
log date: 2014-12-12 16:27:40

––––––––––––––––––––––––––––––––––––––––
Analyzed: Grand Funk Railroad / The Millennium Collection: 20th Century Masters
––––––––––––––––––––––––––––––––––––––––

DR Peak RMS Duration Track
––––––––––––––––––––––––––––––––––––––––
DR6 -0.21 dB -7.18 dB 3:27 01-We're An American Band
DR6 -0.35 dB -9.04 dB 3:23 02-Some Kind Of Wonderful
DR6 -0.35 dB -7.95 dB 2:48 03-The Loco-Motion
DR6 -0.41 dB -8.44 dB 2:57 04-Bad Time
DR7 -0.28 dB -8.60 dB 5:56 05-Shinin' On
DR7 -0.20 dB -8.11 dB 4:04 06-Walk Like A Man (You Can Call Me Your Man)
DR5 -0.20 dB -6.76 dB 3:47 07-Footstompin' Music
DR9 -0.20 dB -12.28 dB 4:26 08-Mean Mistreater
DR6 -0.31 dB -8.68 dB 3:31 09-Rock & Roll Soul
DR5 -0.20 dB -7.40 dB 9:58 10-Closer To Home (I'm Your Captain)
––––––––––––––––––––––––––––––––––––––––

Number of tracks: 10
Official DR value: DR6

Samplerate: 44100 Hz
Channels: 2
Bits per sample: 16
Bitrate: 965 kbps
Codec: FLAC

[CUETools log; Date: 28.11.2014 13:00:43; Version: 2.1.4]
[CTDB TOCID: 4peaNCDuEeYKqac5OQ.mmMeoLaY-] found.
Track | CTDB Status
1 | (8/8) Accurately ripped
2 | (8/8) Accurately ripped
3 | (8/8) Accurately ripped
4 | (8/8) Accurately ripped
5 | (8/8) Accurately ripped
6 | (8/8) Accurately ripped
7 | (8/8) Accurately ripped
8 | (8/8) Accurately ripped
9 | (8/8) Accurately ripped
10 | (8/8) Accurately ripped
[AccurateRip ID: 000e6165-0075e684-790a610a] found.
Track [ CRC | V2 ] Status
01 [f3f4c006|5c8e652e] (03+08/11) Accurately ripped
02 [9fa8346e|5cc3300f] (03+08/11) Accurately ripped
03 [ef042965|1d2810e3] (03+08/11) Accurately ripped
04 [70ca57c4|40fd7955] (03+08/11) Accurately ripped
05 [4d378116|31906410] (03+08/11) Accurately ripped
06 [017914b6|e060c78b] (03+08/11) Accurately ripped
07 [278bfa8b|bac96ad1] (03+08/11) Accurately ripped
08 [1255b8c5|32691872] (03+08/11) Accurately ripped
09 [1ee3ba83|dbfb1d92] (03+08/11) Accurately ripped
10 [aa31948d|1bc23f36] (03+07/10) Accurately ripped

Track Peak [ CRC32 ] [W/O NULL] [ LOG ]
– 97,7 [F9E03C7C] [E2B04FC0] CRC32
01 97,6 [E3866AF2] [8B5F1144]
02 96,0 [838425F4] [B19205C8]
03 96,0 [042D369C] [84F245A8]
04 95,4 [B1857073] [6FA1767A]
05 96,7 [3C2E9F1B] [491FC093]
06 97,7 [D86E15E4] [1905020F]
07 97,7 [C7CBF267] [64C152C9]
08 97,7 [54D92454] [E7B12966]
09 96,4 [8C51A6CC] [020E9145]
10 97,7 [350610DD] [49E1315D]

Grand Funk Railroad - 10 Great Songs: 20th Century Masters-The Millennium Collection (2014)

All thanks go to London