Tags
Language
Tags

Gravy Train - Staircase To The Day (1974) [Reissue 1991]

Posted By: gribovar
Gravy Train - Staircase To The Day (1974) [Reissue 1991]

Gravy Train - Staircase To The Day (1974) [Reissue 1991]
EAC Rip | FLAC (image+.cue+log) - 325 MB | MP3 CBR 320 kbps (LAME 3.93) - 123 MB | Covers (3 MB) included
Genre: Heavy Progressive Rock | RAR 3% Rec. | Label: Sequel Records (NEM CD 613)

Formed in Lancashire in 1969, Gravy Train was fronted by guitarist and vocalist Norman Barratt, along with J.D. Hughes on keyboards, flute and saxophones, Les Williams on bass and Barry Davenport on drums. The band first came to public attention when they signed to Vertigo Records in 1970. Gravy Train recorded two classic progressive rock albums for the label before signing with Pye Records' progressive label, Dawn in 1973. "Staircase to the Day" was the band’s second album for Dawn Records. Issued in 1974, the album was a fine collection of Progressive Rock music that took in influences from bands such as Jethro Tull, Roland Kirk et al.

Tracklist:
01. Starbright Starlight
02. Bring My Life on Back to Me
03. Never Wanted You
04. Staircase to the Day
05. Going for a Quick One
06. The Last Day
07. Evening of My Life
08. Busted in Schenectady
09. Climb Aboard The Gravy Train (Bonus track)
10. Sanctuary (Bonus track)

Total time: 50:56

Exact Audio Copy V0.99 prebeta 4 from 23. January 2008

Отчёт EAC об извлечении, выполненном 27. июля 2011, 12:12

Gravy Train / Staircase To The Day

Дисковод: Optiarc DVD RW AD-7200A Adapter: 0 ID: 0

Режим чтения : Достоверность
Использование точного потока : Да
Отключение кэша аудио : Да
Использование указателей C2 : Нет

Коррекция смещения при чтении : 48
Способность читать области Lead-in и Lead-out : Нет
Заполнение пропущенных сэмплов тишиной : Да
Удаление блоков с тишиной в начале и конце : Нет
При вычислениях CRC использовались нулевые сэмплы : Да
Интерфейс : Встроенный Win32-интерфейс для Win NT/2000

Выходной формат : Пользовательский кодировщик
Выбранный битрейт : 768 kBit/s
Качество : Высокий
Добавление ID3-тэга : Нет
Утилита сжатия : C:\Program Files\Exact Audio Copy\FLAC\FLAC.EXE
Дополнительные параметры : -6 -V -T "ARTIST=%a" -T "TITLE=%t" -T "ALBUM=%g" -T "DATE=%y" -T "TRACKNUMBER=%n" -T "GENRE=%m" -T "COMMENT=%e" %s -o %d


TOC извлечённого CD

Трек | Старт | Длительность | Начальный сектор | Конечный сектор
––––––––––––––––––––––––––––––––––-
1 | 0:00.00 | 4:29.55 | 0 | 20229
2 | 4:29.55 | 5:43.58 | 20230 | 46012
3 | 10:13.38 | 4:01.15 | 46013 | 64102
4 | 14:14.53 | 7:31.15 | 64103 | 97942
5 | 21:45.68 | 5:13.45 | 97943 | 121462
6 | 26:59.38 | 5:36.27 | 121463 | 146689
7 | 32:35.65 | 2:58.38 | 146690 | 160077
8 | 35:34.28 | 8:13.15 | 160078 | 197067
9 | 43:47.43 | 3:08.35 | 197068 | 211202
10 | 46:56.03 | 3:59.65 | 211203 | 229192


Характеристики диапазона извлечения и сообщения об ошибках

Выбранный диапазон

Имя файла D:\images\Gravy Train - Staircase To The Day\Gravy Train - Staircase To The Day.wav

Пиковый уровень 100.0 %
Качество диапазона 100.0 %
CRC копии D492066B
Копирование… OK

Ошибок не произошло


AccurateRip: сводка

Трек 1 точное извлечение (доверие 3) [631514C5]
Трек 2 точное извлечение (доверие 3) [46D4BB02]
Трек 3 точное извлечение (доверие 3) [5DAC0C1C]
Трек 4 точное извлечение (доверие 3) [65178162]
Трек 5 точное извлечение (доверие 3) [643465CE]
Трек 6 точное извлечение (доверие 3) [6ADE4531]
Трек 7 точное извлечение (доверие 3) [FB74A049]
Трек 8 точное извлечение (доверие 3) [CAF3FD31]
Трек 9 точное извлечение (доверие 3) [5CE4AE38]
Трек 10 точное извлечение (доверие 3) [727E75B8]

Все треки извлечены точно

Конец отчёта

[CUETools log; Date: 02.06.2021 2:09:37; Version: 2.1.4]
[CTDB TOCID: FbTNgYK6FdyZimtkAqNtKwclnH4-] found.
Track | CTDB Status
1 | (6/6) Accurately ripped
2 | (6/6) Accurately ripped
3 | (6/6) Accurately ripped
4 | (6/6) Accurately ripped
5 | (6/6) Accurately ripped
6 | (6/6) Accurately ripped
7 | (6/6) Accurately ripped
8 | (6/6) Accurately ripped
9 | (6/6) Accurately ripped
10 | (6/6) Accurately ripped
[AccurateRip ID: 0013bea0-009e3288-880bef0a] found.
Track [ CRC | V2 ] Status
01 [631514c5|e95b147d] (3+3/6) Accurately ripped
02 [46d4bb02|818d6967] (3+3/6) Accurately ripped
03 [5dac0c1c|7d2c9cba] (3+3/6) Accurately ripped
04 [65178162|275b4aaa] (3+3/6) Accurately ripped
05 [643465ce|80a0ffc7] (3+3/6) Accurately ripped
06 [6ade4531|1561e59d] (3+3/6) Accurately ripped
07 [fb74a049|f75d76cd] (3+3/6) Accurately ripped
08 [caf3fd31|5494b217] (3+3/6) Accurately ripped
09 [5ce4ae38|d9d2d9a6] (3+3/6) Accurately ripped
10 [727e75b8|d9e955b0] (3+3/6) Accurately ripped

Track Peak [ CRC32 ] [W/O NULL] [ LOG ]
– 99,9 [D492066B] [8475EEEC] CRC32
01 96,8 [7A32B687] [2EDCA28A]
02 98,2 [C30ECA94] [2F41FACF]
03 99,4 [CEC8800E] [87F82177]
04 99,9 [6A6D9DD1] [AE3A3930]
05 95,0 [3250567B] [3404352D]
06 92,8 [54C7D99F] [3113EA37]
07 82,4 [7BC32683] [E752CEB7]
08 93,7 [DD2B64C6] [C5273A1C]
09 98,0 [239D076E] [3BD16C62]
10 82,7 [B20FE43A] [A131FD10]

Thanks to havefun6699

See also:
Gravy Train - Gravy Train (1970) [Reissue 2005]