Tags
Language
Tags

Gregory Lynn Hall - Heaven On Earth (2014)

Posted By: Andi_Deris
Gregory Lynn Hall - Heaven On Earth (2014)

Gregory Lynn Hall - Heaven On Earth (2014)
EAC Rip | FLAC: Image+Cue+Log | 419 Mb | MP3 CBR 320 kbps | 142 Mb | Scans | Time: 53:19
AOR Heaven | AORH00100
Classic Rock, Hard Rock

Cracking solo debut from the former 101 South singer offering a superb mixture of classic hard rock stuff in the vein of Dio / Rainbow and stunning AOR tunes in classic Fortune/101 style. Incl. guest appearances by Craig Goldy & Billy Liesegang.

Gregory Lynn Hall - Heaven On Earth (2014)




Track Listing

01. You Got Me Runnin (03:36)
02. Rockin The Road (04:18)
03. Stars In The Night (05:23)
04. Heaven To Earth (05:30)
05. I Thought I Saw Heaven (04:13)
06. Love Can (05:33)
07. Fly On (05:13)
08. Ordinary Man (04:05)
09. Cry No More (05:22)
10. Mama Said (04:11)
11. Cryin (05:54)

Produced by Gregory Lynn Hall

Personnel

• Gregory Lynn Hall (ex. 101 South, ex. Rat Sally) - Lead Vocals, Guitars, Bass, Drums, Keyboards, Harmonica

*****
• Craig Goldy (ex. 101 South, Guiffria, Dio, Budgie) - Guitar on "Heaven To Earth"
• Billy Liesegang (ex. Harlan Cage, Liesegang-White, Nina Hagen) - Guitar on “Cry No More”
• Jeff Duncan (Armored Saints, Odin) - Guitar on "Rockin The Road", "Stars In The Night", "Cryin"
• Mike Turner (ex. 101 South) - Guitar on "You Got Me Runnin"
• Johnny Navarro - Guitar on "Mama Said"
• Cody Williams - Guitars
• Bandit Bellamia - Drums

Exact Audio Copy V1.0 beta 3 from 29. August 2011

EAC extraction logfile from 23. December 2014, 11:50

Gregory Lynn Hall / Heaven To Earth

Used drive : Optiarc DVD RW AD-7200S Adapter: 5 ID: 0

Read mode : Secure
Utilize accurate stream : Yes
Defeat audio cache : Yes
Make use of C2 pointers : No

Read offset correction : 48
Overread into Lead-In and Lead-Out : No
Fill up missing offset samples with silence : Yes
Delete leading and trailing silent blocks : No
Null samples used in CRC calculations : Yes
Used interface : Native Win32 interface for Win NT & 2000

Used output format : User Defined Encoder
Selected bitrate : 1024 kBit/s
Quality : High
Add ID3 tag : No
Command line compressor : C:\Program Files (x86)\Exact Audio Copy\Flac\flac.exe
Additional command line options : -V -8 -T "Date=%year%" -T "Genre=%genre%" %source%


TOC of the extracted CD

Track | Start | Length | Start sector | End sector
––––––––––––––––––––––––––––-
1 | 0:00.00 | 3:35.57 | 0 | 16181
2 | 3:35.57 | 4:18.12 | 16182 | 35543
3 | 7:53.69 | 5:23.30 | 35544 | 59798
4 | 13:17.24 | 5:30.14 | 59799 | 84562
5 | 18:47.38 | 4:12.44 | 84563 | 103506
6 | 23:00.07 | 5:33.15 | 103507 | 128496
7 | 28:33.22 | 5:13.27 | 128497 | 151998
8 | 33:46.49 | 4:05.29 | 151999 | 170402
9 | 37:52.03 | 5:21.72 | 170403 | 194549
10 | 43:14.00 | 4:10.67 | 194550 | 213366
11 | 47:24.67 | 5:53.37 | 213367 | 239878


Range status and errors

Selected range

Filename I:\MY FLAC\GREGORY LYNN HALL - Heaven To Earth\Gregory Lynn Hall - Heaven To Earth.wav

Peak level 100.0 %
Extraction speed 3.9 X
Range quality 100.0 %
Test CRC 09876359
Copy CRC 09876359
Copy OK

No errors occurred


AccurateRip summary

Track 1 not present in database
Track 2 not present in database
Track 3 not present in database
Track 4 not present in database
Track 5 not present in database
Track 6 not present in database
Track 7 not present in database
Track 8 not present in database
Track 9 not present in database
Track 10 not present in database
Track 11 not present in database

None of the tracks are present in the AccurateRip database

End of status report

==== Log checksum 03D2DEE25530F5BD445ED79F2781A4BA3A70620510C049E4B8475FDDF45B5793 ====


Many thanks to the original uploader: aikiron