Subcategories
Tags
Language
Tags

Gunar Letzbor, Ars Antiqua Austria - Antonio Caldara: XII Sinfonie a Quattro (2005)

Posted By: ArlegZ
Gunar Letzbor, Ars Antiqua Austria - Antonio Caldara: XII Sinfonie a Quattro (2005)

Gunar Letzbor, Ars Antiqua Austria - Antonio Caldara: XII Sinfonie a Quattro (2005)
EAC | FLAC | Image (Cue & Log) ~ 310 Mb | Total time: 73:10 | Scans included
Classical | Label: Arcana | # A 324 | Recorded: 2003

The historical-instrument ensemble Ars Antiqua Austria under violinist/conductor Gunar Letzbor has specialized in neglected repertory of the eighteenth century, and few composers fit their aims better than Antonio Caldara, a Venetian trained in the grand tradition at St. Mark's cathedral. He had a distinguished career that took him to Mantua, (perhaps) to the then-Austrian court at Barcelona, to Rome, and finally to Vienna itself, where he became vice-kapellmeister under emperor Charles VI. As with other composers in this milieu, most of his production was vocal. The 12 Sinfonie a quattro recorded here are very brief specimens of the kind of sinfonia that served as a curtain raiser for an opera or oratorio, the genre from which the independent symphony ultimately evolved. In this case the sinfonias are taken from oratorios, named in the subtitles of each work. They consist of three or four movements, many of them extremely short but not excluding counterpoint and even little fugal finales. The tone is restrained, in keeping with the religious subject matter, and the texture is pretty constant aside from a few violin solos. Combine that with the technically smooth but rather deadpan readings from Letzbor, a disciple of Reinhard Goebel and Nikolaus Harnoncourt, the result, at least for the general listener, is a very subdued hour of music in a program that would unlikely have been performed in its own time.
–James Manheim

Performer:
Ars Antiqua Austria
Gunar Letzbor, direction

Track List:
Sinfonia I 'Il martiro di S.Terenziano':
01. I. A Tempo giusto e staccato - Adagio
02. II. Allegro
03. III. Adagio
04. IV. Allegro
Sinfonia II 'Il Battista':
05. I. Allegro assai
06. II. Largo - adagio
07. III. Allegro
Sinfonia III 'La morte d'Abel':
08. I. Larghetto
09. II. Allegretto
10. III. Grave
11. IV. Allegro assai
Sinfonia IV 'Morte e sepultura di Christo':
12. I. Grave
13. II. Allegretto - adagio
14. III. Allegro assai
Sinfonia V 'San Pietro di Caesarea':
15. I. Andante
16. II. Allegro - Adagio
17. III. Allegro
Sinfonia VI 'San Elena al Calvario':
18. I. Adagio
19. II. Allegretto
20. III. Adagio
21. IV. Allegro e spiritoso
Sinfonia VII 'Gerusalemme convertita':
22. I. Largo
23. II. Allegro
Sinfonia VIII 'Sedecia':
24. I. Larghetto
25. II. Allegro
26. III. Largo
27. IV. Allegro
Sinfonia IX 'Gesu presentato nel Tempio':
28. I. Introduzione: Largo - Adagio
29. II. Allegro
30. III. Adagio
31. IV. Allegro
Sinfonia X 'Gioseffo, che interpreta i sogni':
32. I. Allegro - Adagio
33. II. Allegro
Sinfonia XI 'Naboth':
34. I. Allegro - Adagio
35. II. Largo
36. III. Allegro
Sinfonia XII 'La passione di Gesu Signor nostro':
37. I. Grave
38. II. Allegretto
39. III. Adagio
40. IV. Allegro


Exact Audio Copy V1.5 from 20. February 2020

EAC extraction logfile from 30. December 2020, 21:58

Gunar Letzbor, Ars Antiqua Austria / Caldara - XII Sinfonie a Quattro

Used drive : HL-DT-STDVDRAM GH24NS95 Adapter: 1 ID: 0

Read mode : Secure
Utilize accurate stream : Yes
Defeat audio cache : Yes
Make use of C2 pointers : No

Read offset correction : 6
Overread into Lead-In and Lead-Out : No
Fill up missing offset samples with silence : Yes
Delete leading and trailing silent blocks : No
Null samples used in CRC calculations : Yes
Used interface : Native Win32 interface for Win NT & 2000

Used output format : User Defined Encoder
Selected bitrate : 128 kBit/s
Quality : High
Add ID3 tag : No
Command line compressor : C:\Program Files\Exact Audio Copy\Flac\flac.exe
Additional command line options : -V -8 -T "Date=%year%" -T "Genre=%genre%" %source%


TOC of the extracted CD

Track | Start | Length | Start sector | End sector
––––––––––––––––––––––––––––-
1 | 0:00.00 | 0:59.02 | 0 | 4426
2 | 0:59.02 | 1:57.16 | 4427 | 13217
3 | 2:56.18 | 0:41.20 | 13218 | 16312
4 | 3:37.38 | 1:28.38 | 16313 | 22950
5 | 5:06.01 | 1:41.71 | 22951 | 30596
6 | 6:47.72 | 0:51.19 | 30597 | 34440
7 | 7:39.16 | 1:20.47 | 34441 | 40487
8 | 8:59.63 | 1:34.67 | 40488 | 47604
9 | 10:34.55 | 3:01.57 | 47605 | 61236
10 | 13:36.37 | 0:38.03 | 61237 | 64089
11 | 14:14.40 | 0:59.27 | 64090 | 68541
12 | 15:13.67 | 1:57.43 | 68542 | 77359
13 | 17:11.35 | 2:38.00 | 77360 | 89209
14 | 19:49.35 | 1:02.03 | 89210 | 93862
15 | 20:51.38 | 0:52.62 | 93863 | 97824
16 | 21:44.25 | 2:10.51 | 97825 | 107625
17 | 23:55.01 | 1:30.55 | 107626 | 114430
18 | 25:25.56 | 0:39.16 | 114431 | 117371
19 | 26:04.72 | 2:29.55 | 117372 | 128601
20 | 28:34.52 | 0:55.34 | 128602 | 132760
21 | 29:30.11 | 0:52.24 | 132761 | 136684
22 | 30:22.35 | 1:06.70 | 136685 | 141704
23 | 31:29.30 | 2:22.06 | 141705 | 152360
24 | 33:51.36 | 1:15.65 | 152361 | 158050
25 | 35:07.26 | 1:51.39 | 158051 | 166414
26 | 36:58.65 | 0:46.56 | 166415 | 169920
27 | 37:45.46 | 0:48.57 | 169921 | 173577
28 | 38:34.28 | 1:02.23 | 173578 | 178250
29 | 39:36.51 | 1:42.15 | 178251 | 185915
30 | 41:18.66 | 0:43.08 | 185916 | 189148
31 | 42:01.74 | 1:14.70 | 189149 | 194768
32 | 43:16.69 | 3:31.22 | 194769 | 210615
33 | 46:48.16 | 1:18.34 | 210616 | 216499
34 | 48:06.50 | 2:21.31 | 216500 | 227105
35 | 50:28.06 | 0:49.17 | 227106 | 230797
36 | 51:17.23 | 1:19.26 | 230798 | 236748
37 | 52:36.49 | 1:20.11 | 236749 | 242759
38 | 53:56.60 | 1:55.56 | 242760 | 251440
39 | 55:52.41 | 0:42.07 | 251441 | 254597
40 | 56:34.48 | 2:03.53 | 254598 | 263875


Range status and errors

Selected range

Filename C:\ArlegZ\Caldara - XII Sinfonie a Quattro - Gunar Letzbor.wav

Peak level 79.4 %
Extraction speed 1.8 X
Range quality 100.0 %
Test CRC 61103E84
Copy CRC 61103E84
Copy OK

No errors occurred


AccurateRip summary

Track 1 accurately ripped (confidence 4) [424C0F17] (AR v2)
Track 2 accurately ripped (confidence 4) [3E01AF6E] (AR v2)
Track 3 accurately ripped (confidence 4) [A5441BA4] (AR v2)
Track 4 accurately ripped (confidence 4) [19DB3A8F] (AR v2)
Track 5 accurately ripped (confidence 4) [56AE89A8] (AR v2)
Track 6 accurately ripped (confidence 4) [A52F959C] (AR v2)
Track 7 accurately ripped (confidence 4) [A84400D7] (AR v2)
Track 8 accurately ripped (confidence 4) [B6FACF4A] (AR v2)
Track 9 accurately ripped (confidence 4) [FAA01671] (AR v2)
Track 10 accurately ripped (confidence 4) [F77ABA0C] (AR v2)
Track 11 accurately ripped (confidence 4) [CBFCBB2B] (AR v2)
Track 12 accurately ripped (confidence 4) [FE657188] (AR v2)
Track 13 accurately ripped (confidence 4) [03FD5796] (AR v2)
Track 14 accurately ripped (confidence 4) [0A1BB6C9] (AR v2)
Track 15 accurately ripped (confidence 4) [404CE6CE] (AR v2)
Track 16 accurately ripped (confidence 4) [667253AE] (AR v2)
Track 17 accurately ripped (confidence 4) [47357B33] (AR v2)
Track 18 accurately ripped (confidence 4) [A5324967] (AR v2)
Track 19 accurately ripped (confidence 4) [88E5A912] (AR v2)
Track 20 accurately ripped (confidence 4) [D6BA4E92] (AR v2)
Track 21 accurately ripped (confidence 4) [9162F9ED] (AR v2)
Track 22 accurately ripped (confidence 4) [B68B1FFC] (AR v2)
Track 23 accurately ripped (confidence 4) [091EC378] (AR v2)
Track 24 accurately ripped (confidence 4) [B159526D] (AR v2)
Track 25 accurately ripped (confidence 4) [7FF21DA4] (AR v2)
Track 26 accurately ripped (confidence 4) [5E0ED086] (AR v2)
Track 27 accurately ripped (confidence 4) [EE6AC6BC] (AR v2)
Track 28 accurately ripped (confidence 4) [E491E180] (AR v2)
Track 29 accurately ripped (confidence 4) [E93A87AB] (AR v2)
Track 30 accurately ripped (confidence 4) [8B046710] (AR v2)
Track 31 accurately ripped (confidence 4) [E9F8C676] (AR v2)
Track 32 accurately ripped (confidence 4) [C3795669] (AR v2)
Track 33 accurately ripped (confidence 3) [7B8CB15F] (AR v2)
Track 34 accurately ripped (confidence 4) [0C55FFBF] (AR v2)
Track 35 accurately ripped (confidence 4) [B194AD87] (AR v2)
Track 36 accurately ripped (confidence 4) [D1A4488D] (AR v2)
Track 37 accurately ripped (confidence 4) [057DF4E0] (AR v2)
Track 38 accurately ripped (confidence 4) [9E28D204] (AR v2)
Track 39 accurately ripped (confidence 4) [E41F646F] (AR v2)
Track 40 accurately ripped (confidence 3) [FC1A87B6] (AR v2)

All tracks accurately ripped

End of status report

–– CUETools DB Plugin V2.1.6

[CTDB TOCID: UOh4jq0_HBtbpsqnfEoscrFS.MI-] found
Submit result: already submitted
Track | CTDB Status
1 | (18/18) Accurately ripped
2 | (18/18) Accurately ripped
3 | (18/18) Accurately ripped
4 | (18/18) Accurately ripped
5 | (18/18) Accurately ripped
6 | (18/18) Accurately ripped
7 | (18/18) Accurately ripped
8 | (18/18) Accurately ripped
9 | (18/18) Accurately ripped
10 | (18/18) Accurately ripped
11 | (18/18) Accurately ripped
12 | (18/18) Accurately ripped
13 | (18/18) Accurately ripped
14 | (18/18) Accurately ripped
15 | (18/18) Accurately ripped
16 | (18/18) Accurately ripped
17 | (18/18) Accurately ripped
18 | (18/18) Accurately ripped
19 | (18/18) Accurately ripped
20 | (18/18) Accurately ripped
21 | (18/18) Accurately ripped
22 | (17/18) Accurately ripped
23 | (18/18) Accurately ripped
24 | (18/18) Accurately ripped
25 | (18/18) Accurately ripped
26 | (18/18) Accurately ripped
27 | (18/18) Accurately ripped
28 | (18/18) Accurately ripped
29 | (18/18) Accurately ripped
30 | (18/18) Accurately ripped
31 | (18/18) Accurately ripped
32 | (18/18) Accurately ripped
33 | (18/18) Accurately ripped
34 | (18/18) Accurately ripped
35 | (18/18) Accurately ripped
36 | (18/18) Accurately ripped
37 | (18/18) Accurately ripped
38 | (18/18) Accurately ripped
39 | (18/18) Accurately ripped
40 | (18/18) Accurately ripped


==== Log checksum 9810E2C3ADB2D5A9470E0878327845765B3A97D10F22D39DC584BBE3BF0E272D ====

Gunar Letzbor, Ars Antiqua Austria - Antonio Caldara: XII Sinfonie a Quattro (2005)