Tags
Language
Tags

Günter Wand, Sinfonieorchester des Norddeutschen Rundfunks - Anton Bruckner: Symphony No. 8 (1989)

Posted By: ArlegZ
Günter Wand, Sinfonieorchester des Norddeutschen Rundfunks - Anton Bruckner: Symphony No. 8  (1989)

Günter Wand, Sinfonieorchester des Norddeutschen Rundfunks - Anton Bruckner: Symphony No. 8 (1989)
EAC | FLAC | Image (Cue & Log) ~ 394 Mb | Total time: 86:21 | Scans included
Classical | Label: RCA Victor Red Seal | # RD60364 | Recorded: 1987

There are not a lot of recordings of the 1887 edition of the 8th. Of those, the selection of actually good (i.e. not marred by performance or recording problems) is even smaller. Out of the small number of recordings of this edition, this is in my opinion the best. The fast movements are paced just right (fast but not too fast), and the slow movement is not too ponderous. The playing is top-notch, with a particular nod to the horns and low brass, and the interpretation is fiery and not too reserved. My only criticism is that there is very little elasticity in the tempo – many of the weightier moments felt like they needed some room to breathe, but instead Young just plows straight ahead. That said, this is a conductor to watch. Very impressive!
–Beth Debertin

Performer:
Sinfonieorchester des Norddeutschen Rundfunks Hamburg
Günter Wand, conductor

Track List:
Sinfonie Nr. 8 C-moll
CD1:
1. I. Allegro moderato
2. II. Scherzo. Allegro moderato
CD2:
1. III. Adagio. Feierlich, Langsam; Doch Nicht Schleppend
2. IV. Finale. Feierlich, Nicht Schnell


Exact Audio Copy V1.6 from 23. October 2020

EAC extraction logfile from 21. July 2021, 21:07

Bruckner / Symphony No.8 (Live Recroding) (Günter Wand) (Disc 1)

Used drive : ATAPI iHAS122 F Adapter: 1 ID: 0

Read mode : Secure
Utilize accurate stream : Yes
Defeat audio cache : Yes
Make use of C2 pointers : No

Read offset correction : 6
Overread into Lead-In and Lead-Out : No
Fill up missing offset samples with silence : Yes
Delete leading and trailing silent blocks : No
Null samples used in CRC calculations : Yes
Used interface : Native Win32 interface for Win NT & 2000

Used output format : User Defined Encoder
Selected bitrate : 768 kBit/s
Quality : High
Add ID3 tag : No
Command line compressor : C:\Program Files (x86)\Exact Audio Copy\FLAC\FLAC.EXE
Additional command line options : -6 -V -T "ARTIST=%artist%" -T "TITLE=%title%" -T "ALBUM=%albumtitle%" -T "DATE=%year%" -T "TRACKNUMBER=%tracknr%" -T "GENRE=%genre%" -T "COMMENT=%comment%" -T "BAND=%albuminterpret%" -T "ALBUMARTIST=%albuminterpret%" -T "COMPOSER=%composer%" %haslyrics%–tag-from-file=LYRICS="%lyricsfile%"%haslyrics% -T "DISCNUMBER=%cdnumber%" -T "TOTALDISCS=%totalcds%" -T "TOTALTRACKS=%numtracks%" %hascover%–picture="%coverfile%"%hascover% %source% -o %dest%


TOC of the extracted CD

Track | Start | Length | Start sector | End sector
––––––––––––––––––––––––––––-
1 | 0:00.00 | 16:53.00 | 0 | 75974
2 | 16:53.00 | 15:37.23 | 75975 | 146272


Range status and errors

Selected range

Filename K:\Tubarec rips\Bruckner - Symphony No.8 (Live Recroding) (Günter Wand)\Bruckner - Symphony No.8 (Live Recroding) (Günter Wand) (Disc 1).wav

Peak level 87.2 %
Extraction speed 2.7 X
Range quality 100.0 %
Test CRC E53B84D0
Copy CRC E53B84D0
Copy OK

No errors occurred


AccurateRip summary

Track 1 accurately ripped (confidence 11) [361F9E7D] (AR v2)
Track 2 accurately ripped (confidence 12) [A231C228] (AR v2)

All tracks accurately ripped

End of status report

–– CUETools DB Plugin V2.1.6

[CTDB TOCID: 5eKuFvv1b4odag74rUvJFCh0c20-] found
Submit result: 5eKuFvv1b4odag74rUvJFCh0c20- has been confirmed
Track | CTDB Status
1 | (38/38) Accurately ripped
2 | (38/38) Accurately ripped


==== Log checksum 0F4572994FB70F6798CEDAECF034F06A39FCF9372FADD9D4C200E045422E48C1 ====


Exact Audio Copy V1.6 from 23. October 2020

EAC extraction logfile from 21. July 2021, 20:45

Bruckner / Symphony No.8 (Live Recroding) (Günter Wand) (Disc 2)

Used drive : ATAPI iHAS122 F Adapter: 1 ID: 0

Read mode : Secure
Utilize accurate stream : Yes
Defeat audio cache : Yes
Make use of C2 pointers : No

Read offset correction : 6
Overread into Lead-In and Lead-Out : No
Fill up missing offset samples with silence : Yes
Delete leading and trailing silent blocks : No
Null samples used in CRC calculations : Yes
Used interface : Native Win32 interface for Win NT & 2000

Used output format : User Defined Encoder
Selected bitrate : 768 kBit/s
Quality : High
Add ID3 tag : No
Command line compressor : C:\Program Files (x86)\Exact Audio Copy\FLAC\FLAC.EXE
Additional command line options : -6 -V -T "ARTIST=%artist%" -T "TITLE=%title%" -T "ALBUM=%albumtitle%" -T "DATE=%year%" -T "TRACKNUMBER=%tracknr%" -T "GENRE=%genre%" -T "COMMENT=%comment%" -T "BAND=%albuminterpret%" -T "ALBUMARTIST=%albuminterpret%" -T "COMPOSER=%composer%" %haslyrics%–tag-from-file=LYRICS="%lyricsfile%"%haslyrics% -T "DISCNUMBER=%cdnumber%" -T "TOTALDISCS=%totalcds%" -T "TOTALTRACKS=%numtracks%" %hascover%–picture="%coverfile%"%hascover% %source% -o %dest%


TOC of the extracted CD

Track | Start | Length | Start sector | End sector
––––––––––––––––––––––––––––-
1 | 0:00.00 | 28:33.23 | 0 | 128497
2 | 28:33.23 | 25:15.65 | 128498 | 242187


Range status and errors

Selected range

Filename K:\Tubarec rips\Bruckner - Symphony No.8 (Live Recroding) (Günter Wand)\Bruckner - Symphony No.8 (Live Recroding) (Günter Wand) (Disc 2).wav

Peak level 100.0 %
Extraction speed 3.0 X
Range quality 100.0 %
Test CRC 5E18736A
Copy CRC 5E18736A
Copy OK

No errors occurred


AccurateRip summary

Track 1 accurately ripped (confidence 12) [58AA8FE6] (AR v2)
Track 2 accurately ripped (confidence 12) [ECF45640] (AR v2)

All tracks accurately ripped

End of status report

–– CUETools DB Plugin V2.1.6

[CTDB TOCID: OzBvhJf_AoxBcnaqhCqTCDlLsxY-] found
Submit result: OzBvhJf_AoxBcnaqhCqTCDlLsxY- has been confirmed
Track | CTDB Status
1 | (38/38) Accurately ripped
2 | (35/38) Accurately ripped


==== Log checksum 401C9B603F36D260D9F7E6F2BF4EBB1BB435497DA2BE9CA7B1C7E350074BA8C9 ====

Günter Wand, Sinfonieorchester des Norddeutschen Rundfunks - Anton Bruckner: Symphony No. 8  (1989)

Thanks to the original releaser