Subcategories
Tags
Language
Tags

Guntis Kuzma, Andris Poga, Latvian National Symphony Orchestra - Tālivaldis Ķeniņš: Symphony No.1 & Two Concertos (2020)

Posted By: ArlegZ
Guntis Kuzma, Andris Poga, Latvian National Symphony Orchestra - Tālivaldis Ķeniņš: Symphony No.1 & Two Concertos (2020)

Guntis Kuzma, Andris Poga, Latvian National Symphony Orchestra - Tālivaldis Ķeniņš: Symphony No.1 & Two Concertos (2020)
EAC | FLAC | Image (Cue & Log) ~ 245 Mb | Total time: 57:49 | Scans included
Classical | Label: Ondine | ODE 1350-2 | Recorded: 2020

Tālivaldis Ķeniņš (1919–2008) is a name that is not known to most classical listeners despite of his long international career as a composer. This album presents three orchestral works by one of Latvia’s greatest 20th century composers performed by the Latvian National Symphony Orchestra under the baton of Andris Poga and Guntis Kuzma.

Performer:
Agnese Egliņa, piano (1–6)
Tommaso Pratola, flute (1–3)
Mārtiņš Circenis, clarinet (1–3)
Edgars Saksons, percussion (4–6)
Latvian National Symphony Orchestra
Guntis Kuzma, conductor (1–6)
Andris Poga, conductor (7–9)

Track List:
Tālivaldis Ķeniņš (1919-2008)
Concerto di camera No. 1 (1981)
for piano and chamber ensemble
01. I. Moderato con moto
02. II. Lento cantábile
03. III. Vivo e marcato
Concerto for Piano (1990)
with string orchestra and percussion
04. I. Molto vivace
05. II. Largo quasi una passacaglia
06. III. Presto - Prestissimo
Symphony No. 1 (1959)
07. I. Moderato ma non troppo
08. II. Largo e sostenuto
09. III. Allegro molto


Exact Audio Copy V1.5 from 20. February 2020

EAC extraction logfile from 13. January 2021, 21:23

Latvian National Symphony Orchestra, Guntis Kuzma / Ķeniņš - Symphony No.1 & Two Concertos

Used drive : ASUS SDRW-08U7M-U Adapter: 1 ID: 0

Read mode : Secure
Utilize accurate stream : Yes
Defeat audio cache : Yes
Make use of C2 pointers : No

Read offset correction : 6
Overread into Lead-In and Lead-Out : No
Fill up missing offset samples with silence : Yes
Delete leading and trailing silent blocks : No
Null samples used in CRC calculations : Yes
Used interface : Native Win32 interface for Win NT & 2000

Used output format : User Defined Encoder
Selected bitrate : 128 kBit/s
Quality : High
Add ID3 tag : No
Command line compressor : C:\Program Files (x86)\Exact Audio Copy\Flac\flac.exe
Additional command line options : -V -8 -T "Date=%year%" -T "Genre=%genre%" %source%


TOC of the extracted CD

Track | Start | Length | Start sector | End sector
––––––––––––––––––––––––––––-
1 | 0:00.00 | 6:49.62 | 0 | 30736
2 | 6:49.62 | 7:01.54 | 30737 | 62365
3 | 13:51.41 | 3:51.18 | 62366 | 79708
4 | 17:42.59 | 7:58.63 | 79709 | 115621
5 | 25:41.47 | 7:54.13 | 115622 | 151184
6 | 33:35.60 | 3:47.10 | 151185 | 168219
7 | 37:22.70 | 7:18.05 | 168220 | 201074
8 | 44:41.00 | 7:30.37 | 201075 | 234861
9 | 52:11.37 | 6:57.20 | 234862 | 266156


Range status and errors

Selected range

Filename C:\temp\Kenins - Symphony No.1; Two Concertos - 2020\Kenins - Symphony No.1 & Two Concertos.wav

Peak level 99.3 %
Extraction speed 4.6 X
Range quality 99.9 %
Test CRC 502A5F6C
Copy CRC 502A5F6C
Copy OK

No errors occurred


AccurateRip summary

Track 1 not present in database
Track 2 not present in database
Track 3 not present in database
Track 4 not present in database
Track 5 not present in database
Track 6 not present in database
Track 7 not present in database
Track 8 not present in database
Track 9 not present in database

None of the tracks are present in the AccurateRip database

End of status report

==== Log checksum 0FB0593A78592000AC2FCC33C42A905FCCC9BDA714A8B5593A72A63EAA4C4FD8 ====

Guntis Kuzma, Andris Poga, Latvian National Symphony Orchestra - Tālivaldis Ķeniņš: Symphony No.1 & Two Concertos (2020)

Thanks to the original releaser