Tags
Language
Tags

Guy Lafitte - Blue And Sentimental (1955) [Reissue 2000] (Re-up)

Posted By: gribovar
Guy Lafitte - Blue And Sentimental (1955) [Reissue 2000] (Re-up)

Guy Lafitte - Blue And Sentimental (1955) [Reissue 2000]
EAC Rip | FLAC (tracks+.cue+log) - 192 MB | MP3 CBR 320 kbps (LAME 3.93) - 87 MB | Covers - 46 MB
Genre: Jazz, Mainstream Jazz | RAR 3% Rec. | Label: Universal Music (159 852-2)

On Blue & Sentimental, tenor saxman Guy Laffite leads a quartet through a series of ballads originally composed by the likes of Count Basie (the title track), Duke Ellington ("Krum Elbow Blues"), and Ted Koehler ("Get Happy," "I've Got the World on a String"), among others. It's a rather laid-back and unchallenging set that's intended more for relaxing than analysis, and when approached as such, it proves quite effective. Laffite's quartet includes Raymond Fol (piano), George Daly (vibraphone), and Peanuts Holland (trumpet).
Tracklist:
01. Blue And Sentimental
02. She's Funny That Way
03. If I Had You
04. Get Happy
05. Stardust
06. I've Got The World On A String
07. Where Or When
08. Krum Elbow Blues
09. Boogie Blues

Total time: 37:02

Exact Audio Copy V1.0 beta 1 from 15. November 2010

EAC extraction logfile from 18. July 2011, 14:50

Guy Lafitte / Blue And Sentimental

Used drive : HL-DT-STDVD+-RW GSA-T21N Adapter: 0 ID: 0

Read mode : Secure
Utilize accurate stream : Yes
Defeat audio cache : Yes
Make use of C2 pointers : No

Read offset correction : 667
Overread into Lead-In and Lead-Out : No
Fill up missing offset samples with silence : Yes
Delete leading and trailing silent blocks : No
Null samples used in CRC calculations : Yes
Used interface : Native Win32 interface for Win NT & 2000
Gap handling : Appended to previous track

Used output format : User Defined Encoder
Selected bitrate : 896 kBit/s
Quality : High
Add ID3 tag : No
Command line compressor : C:\Program Files\Audio\Exact Audio Copy\Flac\flac.exe
Additional command line options : -8 -V -T "ARTIST=%a" -T "TITLE=%t" -T "ALBUM=%g" -T "DATE=%y" -T "TRACKNUMBER=%n" -T "TOTALTRACKS=%x" -T "GENRE=%m" -T "ALBUMARTIST=%v" -T "ALBUM ARTIST=%v" -T "COMMENT=EAC Secure Mode, Test & Copy, AccurateRip, FLAC -8" %s


TOC of the extracted CD

Track | Start | Length | Start sector | End sector
––––––––––––––––––––––––––––-
1 | 0:00.00 | 6:38.29 | 0 | 29878
2 | 6:38.29 | 3:13.70 | 29879 | 44423
3 | 9:52.24 | 2:50.17 | 44424 | 57190
4 | 12:42.41 | 2:57.44 | 57191 | 70509
5 | 15:40.10 | 3:29.43 | 70510 | 86227
6 | 19:09.53 | 4:24.44 | 86228 | 106071
7 | 23:34.22 | 4:38.50 | 106072 | 126971
8 | 28:12.72 | 5:03.47 | 126972 | 149743
9 | 33:16.44 | 3:44.71 | 149744 | 166614


Track 1

Filename F:\JAZZ IN PARIS\Guy Lafitte - Blue and sentimental (1954) [FLAC] {Gitanes 159 852-2}\01 - Blue And Sentimental.wav

Pre-gap length 0:00:02.00

Peak level 91.7 %
Extraction speed 3.1 X
Track quality 100.0 %
Test CRC 912693E1
Copy CRC 912693E1
Cannot be verified as accurate (confidence 4) [1FA33125], AccurateRip returned [E7F94E01]
Copy OK

Track 2

Filename F:\JAZZ IN PARIS\Guy Lafitte - Blue and sentimental (1954) [FLAC] {Gitanes 159 852-2}\02 - She's Funny That Way.wav

Pre-gap length 0:00:01.45

Peak level 85.2 %
Extraction speed 2.6 X
Track quality 99.9 %
Test CRC 7ED0B952
Copy CRC 7ED0B952
Cannot be verified as accurate (confidence 4) [6CDCE620], AccurateRip returned [7DD2DADA]
Copy OK

Track 3

Filename F:\JAZZ IN PARIS\Guy Lafitte - Blue and sentimental (1954) [FLAC] {Gitanes 159 852-2}\03 - If I Had You.wav

Pre-gap length 0:00:01.45

Peak level 82.0 %
Extraction speed 3.3 X
Track quality 100.0 %
Test CRC 1C8477D6
Copy CRC 1C8477D6
Cannot be verified as accurate (confidence 4) [8A3BAA96], AccurateRip returned [C906A2D3]
Copy OK

Track 4

Filename F:\JAZZ IN PARIS\Guy Lafitte - Blue and sentimental (1954) [FLAC] {Gitanes 159 852-2}\04 - Get Happy.wav

Pre-gap length 0:00:01.45

Peak level 89.9 %
Extraction speed 3.5 X
Track quality 100.0 %
Test CRC 3868DA8E
Copy CRC 3868DA8E
Cannot be verified as accurate (confidence 4) [C190307A], AccurateRip returned [B40B83F6]
Copy OK

Track 5

Filename F:\JAZZ IN PARIS\Guy Lafitte - Blue and sentimental (1954) [FLAC] {Gitanes 159 852-2}\05 - Stardust.wav

Pre-gap length 0:00:01.45

Peak level 73.9 %
Extraction speed 3.8 X
Track quality 100.0 %
Test CRC FB516338
Copy CRC FB516338
Cannot be verified as accurate (confidence 3) [0EB3F5B2], AccurateRip returned [9F095CF9]
Copy OK

Track 6

Filename F:\JAZZ IN PARIS\Guy Lafitte - Blue and sentimental (1954) [FLAC] {Gitanes 159 852-2}\06 - I've Got The World On A String.wav

Pre-gap length 0:00:01.45

Peak level 80.0 %
Extraction speed 4.2 X
Track quality 100.0 %
Test CRC 8147DBB2
Copy CRC 8147DBB2
Cannot be verified as accurate (confidence 3) [9101CB11], AccurateRip returned [CECF3253]
Copy OK

Track 7

Filename F:\JAZZ IN PARIS\Guy Lafitte - Blue and sentimental (1954) [FLAC] {Gitanes 159 852-2}\07 - Where Or When.wav

Pre-gap length 0:00:01.45

Peak level 83.2 %
Extraction speed 4.5 X
Track quality 100.0 %
Test CRC 8761F654
Copy CRC 8761F654
Cannot be verified as accurate (confidence 4) [80D0E710], AccurateRip returned [F468D216]
Copy OK

Track 8

Filename F:\JAZZ IN PARIS\Guy Lafitte - Blue and sentimental (1954) [FLAC] {Gitanes 159 852-2}\08 - Krum Elbow Blue.wav

Pre-gap length 0:00:01.45

Peak level 85.5 %
Extraction speed 4.8 X
Track quality 100.0 %
Test CRC 8882E560
Copy CRC 8882E560
Cannot be verified as accurate (confidence 3) [AE6A6BB7], AccurateRip returned [51AD98D0]
Copy OK

Track 9

Filename F:\JAZZ IN PARIS\Guy Lafitte - Blue and sentimental (1954) [FLAC] {Gitanes 159 852-2}\09 - Boogie Blues.wav

Pre-gap length 0:00:01.45

Peak level 66.0 %
Extraction speed 4.8 X
Track quality 100.0 %
Test CRC 72DE89E7
Copy CRC 72DE89E7
Cannot be verified as accurate (confidence 4) [10F88474], AccurateRip returned [0CBB0C3D]
Copy OK


No tracks could be verified as accurate
You may have a different pressing from the one(s) in the database

No errors occurred

End of status report

==== Log checksum 1D6D6DD4F0F8D3E906766C78D85BE1EC9B81673FA1B5191816B67664D9E61239 ====

[CUETools log; Date: 08.12.2021 15:37:28; Version: 2.1.4]
[CTDB TOCID: BYuFGlDh7ZZftptxxBogZOSRZ4k-] found.
Track | CTDB Status
1 | (36/37) Accurately ripped
2 | (36/37) Accurately ripped
3 | (36/37) Accurately ripped
4 | (36/37) Accurately ripped
5 | (36/37) Accurately ripped
6 | (36/37) Accurately ripped
7 | (36/37) Accurately ripped
8 | (36/37) Accurately ripped
9 | (36/37) Accurately ripped
[AccurateRip ID: 000cc803-005c86df-7b08ad09] found.
Track [ CRC | V2 ] Status
01 [1fa33125|ae75d1c4] (00+04/20) Accurately ripped
02 [6cdce620|86a6d790] (00+04/20) Accurately ripped
03 [8a3baa96|eb1ba401] (00+04/20) Accurately ripped
04 [c190307a|4f9043a3] (00+04/19) Accurately ripped
05 [0eb3f5b2|96507bf9] (00+04/19) Accurately ripped
06 [9101cb11|508c9b85] (00+04/19) Accurately ripped
07 [80d0e710|326089d6] (00+04/20) Accurately ripped
08 [ae6a6bb7|5f2f894d] (00+04/19) Accurately ripped
09 [10f88474|3971e9d3] (00+04/20) Accurately ripped
Offsetted by 667:
01 [e7f94e01] (04/20) Accurately ripped
02 [7dd2dada] (04/20) Accurately ripped
03 [c906a2d3] (04/20) Accurately ripped
04 [b40b83f6] (04/19) Accurately ripped
05 [9f095cf9] (03/19) Accurately ripped
06 [cecf3253] (03/19) Accurately ripped
07 [f468d216] (04/20) Accurately ripped
08 [51ad98d0] (03/19) Accurately ripped
09 [0cbb0c3d] (04/20) Accurately ripped

Track Peak [ CRC32 ] [W/O NULL] [ LOG ]
– 91,7 [C0307172] [74517AB2]
01 91,7 [912693E1] [FEBE3478] CRC32
02 85,2 [7ED0B952] [1BA88BD1] CRC32
03 82,0 [1C8477D6] [3B790FD2] CRC32
04 89,9 [3868DA8E] [AA0FFC5E] CRC32
05 73,9 [FB516338] [F6159AEC] CRC32
06 80,0 [8147DBB2] [8CC5971E] CRC32
07 83,2 [8761F654] [5EB74F37] CRC32
08 85,5 [8882E560] [26BC6F4D] CRC32
09 66,0 [72DE89E7] [8C7B525A] CRC32

Thanks to the original releaser