Subcategories

Gyorgy Ligeti edition: CD 3. Etudes; Musica Ricercata [1996]

Posted By: Aregak
Gyorgy Ligeti edition: CD 3. Etudes; Musica Ricercata [1996]

Gyorgy Ligeti edition: CD 3. Etudes; Musica Ricercata [1996]
EAC Rip | FLAC, IMG+CUE, LOG | Covers | 1cd, 266 MB
Classical | Label: Sony Classical | Catalog Number: 62308 | TT: 74'02

These chamber works bring Sony's adventurous, timely Ligeti series to a natural pinnacle. Long the challenger of stylistic stasis and customary demonstrations of excellence, Ligeti has outdone himself here (as he did with the fantastic Mechanical Music release). The Trio for Violin, Horn, and Piano (1982) challenges its players to stay in step with each other even while expanding virtuosity to the breaking point. Marie-Luise Neunecker plays such full horn parts that they roll flow over the tonal bounds, as does Saschko Gawriloff's violin and Pierre-Laurent Aimard's piano… –Andrew Bartlett..
Performer:
Pierre-Laurent Aimard - Piano

Tracklisting:
Itudes pour piano (Premier livre):
01.I. Disordre
02.II. Cordes ` vide
03.III. Touches bloquies
04.IV. Fanfares
05.V. Arc-en-ciel
06.VI. Automne ` Varsovie

Itudes pour piano (Deuxihme livre):
07.VII. Galamb borong
08.VIII. Fim
09.IX. Vertige
10.X. Der Zauberlehrling
11.XI. En suspens
12.XII. Entrelacs
13.XIII. L'escalier du diable
14.XIV. Coloana infinita

Musica ricercata:
15.Nr. 1
16.Nr. 2
17.Nr. 3
18.Nr. 4
19.Nr. 5
20.Nr. 6
21.Nr. 7
22.Nr. 8
23.Nr. 9
24.Nr. 10
25.Nr. 11

26.XV. White on White from Itudes pour piano (Troisihme livre)

Exact Audio Copy V1.0 beta 3 from 29. August 2011

EAC extraction logfile from 26. January 2014, 10:12

Pierre-Laurent Aimard / Ligeti - Works For Piano - CD3 - Etudes, Musica Ricercata

Used drive : ATAPI iHAS122 C Adapter: 0 ID: 1

Read mode : Secure
Utilize accurate stream : Yes
Defeat audio cache : Yes
Make use of C2 pointers : No

Read offset correction : 6
Overread into Lead-In and Lead-Out : No
Fill up missing offset samples with silence : Yes
Delete leading and trailing silent blocks : No
Null samples used in CRC calculations : Yes
Used interface : Installed external ASPI interface

Used output format : User Defined Encoder
Selected bitrate : 192 kBit/s
Quality : High
Add ID3 tag : No
Command line compressor : C:\Program Files\Exact Audio Copy\Flac\flac.exe
Additional command line options : -V -8 -T "Date=%year%" -T "Genre=%genre%" %source%


TOC of the extracted CD

Track | Start | Length | Start sector | End sector
––––––––––––––––––––––––––––-
1 | 0:00.00 | 2:22.25 | 0 | 10674
2 | 2:22.25 | 3:15.00 | 10675 | 25299
3 | 5:37.25 | 1:58.27 | 25300 | 34176
4 | 7:35.52 | 3:36.38 | 34177 | 50414
5 | 11:12.15 | 3:51.60 | 50415 | 67799
6 | 15:04.00 | 4:26.72 | 67800 | 87821
7 | 19:30.72 | 2:47.55 | 87822 | 100401
8 | 22:18.52 | 3:04.50 | 100402 | 114251
9 | 25:23.27 | 3:02.48 | 114252 | 127949
10 | 28:26.00 | 2:19.65 | 127950 | 138439
11 | 30:45.65 | 2:06.67 | 138440 | 147956
12 | 32:52.57 | 2:55.48 | 147957 | 161129
13 | 35:48.30 | 5:16.07 | 161130 | 184836
14 | 41:04.37 | 1:51.53 | 184837 | 193214
15 | 42:56.15 | 2:42.60 | 193215 | 205424
16 | 45:39.00 | 3:51.62 | 205425 | 222811
17 | 49:30.62 | 1:11.48 | 222812 | 228184
18 | 50:42.35 | 2:17.67 | 228185 | 238526
19 | 53:00.27 | 3:12.33 | 238527 | 252959
20 | 56:12.60 | 0:50.07 | 252960 | 256716
21 | 57:02.67 | 4:04.03 | 256717 | 275019
22 | 61:06.70 | 1:15.27 | 275020 | 280671
23 | 62:22.22 | 2:15.23 | 280672 | 290819
24 | 64:37.45 | 1:22.37 | 290820 | 297006
25 | 66:00.07 | 4:24.25 | 297007 | 316831
26 | 70:24.32 | 3:51.68 | 316832 | 334224


Range status and errors

Selected range

Filename C:\Program Files\Exact Audio Copy\Flac\Ligeti - Works For Piano - CD3.wav

Peak level 97.2 %
Extraction speed 10.5 X
Range quality 100.0 %
Test CRC 89AB95FE
Copy CRC 89AB95FE
Copy OK

No errors occurred


AccurateRip summary

Track 1 accurately ripped (confidence 16) [5AFD96DA] (AR v2)
Track 2 accurately ripped (confidence 16) [66BDE050] (AR v2)
Track 3 accurately ripped (confidence 16) [DC4DE6BD] (AR v2)
Track 4 accurately ripped (confidence 16) [BCE68C91] (AR v2)
Track 5 accurately ripped (confidence 16) [A26D45EC] (AR v2)
Track 6 accurately ripped (confidence 16) [5FC6F8B2] (AR v2)
Track 7 accurately ripped (confidence 16) [B40BF41C] (AR v2)
Track 8 accurately ripped (confidence 16) [6EA74FAC] (AR v2)
Track 9 accurately ripped (confidence 16) [835BD6D2] (AR v2)
Track 10 accurately ripped (confidence 16) [C30C0CA7] (AR v2)
Track 11 accurately ripped (confidence 16) [711FBD09] (AR v2)
Track 12 accurately ripped (confidence 16) [DCB17847] (AR v2)
Track 13 accurately ripped (confidence 16) [8E778E8F] (AR v2)
Track 14 accurately ripped (confidence 16) [A35A4B03] (AR v2)
Track 15 accurately ripped (confidence 16) [FA0590C6] (AR v2)
Track 16 accurately ripped (confidence 16) [5216A88F] (AR v2)
Track 17 accurately ripped (confidence 17) [30BBBC28] (AR v2)
Track 18 accurately ripped (confidence 17) [1A4C60B8] (AR v2)
Track 19 accurately ripped (confidence 17) [49182B14] (AR v2)
Track 20 accurately ripped (confidence 17) [5E27DF3F] (AR v2)
Track 21 accurately ripped (confidence 17) [5F29696E] (AR v2)
Track 22 accurately ripped (confidence 17) [7EB93DBF] (AR v2)
Track 23 accurately ripped (confidence 17) [D9D59563] (AR v2)
Track 24 accurately ripped (confidence 17) [7FAE8C35] (AR v2)
Track 25 accurately ripped (confidence 16) [F967C53F] (AR v2)
Track 26 accurately ripped (confidence 16) [948E4D31] (AR v2)

All tracks accurately ripped

End of status report

==== Log checksum 47E9C810D1B75D7BD5F47F77B3CD54CEC8DF2C77DF6CF623B09AAB8CB0DF9FF5 ====