Subcategories

Gyorgy Ligeti edition: CD 7. Chamber Music [1998]

Posted By: Aregak
Gyorgy Ligeti edition: CD 7. Chamber Music [1998]

Gyorgy Ligeti edition: CD 7. Chamber Music [1998]
EAC Rip | FLAC, IMG+CUE, LOG | Covers | 1cd, 317 MB
Classical | Label: Sony Classical | Catalog Number: 62309 | TT: 71’01

These chamber works bring Sony's adventurous, timely Ligeti series to a natural pinnacle. Long the challenger of stylistic stasis and customary demonstrations of excellence, Ligeti has outdone himself here (as he did with the fantastic Mechanical Music release). The Trio for Violin, Horn, and Piano (1982) challenges its players to stay in step with each other even while expanding virtuosity to the breaking point. Marie-Luise Neunecker plays such full horn parts that they roll flow over the tonal bounds, as does Saschko Gawriloff's violin and Pierre-Laurent Aimard's piano. The Ten Pieces for Wind Quintet (1968) and Six Bagatelles for Wind Quintet (1953) are each pivoted on a mixture of elongated and quickly abrupted figures. The wind quintets echo Neunecker's horn parts in their extensions of typical note ranges. Ligeti writes in the liner essay about looking to script extremities. The power of the writing comes across in the mottled mix of multiple instrumental pitches, making these fantastic. –Andrew Bartlett..
Performer:
Pierre-Laurent Aimard - Piano
Saschko Gawriloff - Violin
Michael Collins - Clarinet
Philippa Davies - Flute
Richard Watkins - French Horn
Tabea Zimmerman - Viola.

Tracklisting:
Trio for Violin, Horn and Piano (1982) [Hommage à Brahms]:
01.I. Andantino con tenerezza
02.II. Vivacissimo molto ritmico
03.III. Alla marcia
04.IV. Lamento. Adagio

Ten Pieces for Wind Quintet (1968):
05.I. Molto sostenuto e calmo
06.II. Prestissimo minaccioso e burlesco
07.III. Lento
08.IV. Prestissimo leggiero e virtuoso
09.V. Presto staccatissimo e leggiero
10.VI. Presto staccatissimo e leggiero
11.VII. Vivo, energico
12.VIII. Allegro con delicatezza
13.IX. Sostenuto, stridente
14.X. Presto bizzaro e rubato, so schnell wie möglich

Six Bagatelles for Wind Quintet (1953):
15.I. Allegro con spirito
16.II. Rubato. Lamentoso
17.III. Allegro grazioso
18.IV. Presto ruvido
19.V. Adagio. Mesto
20.VI. Molto vivace. Capriccioso

Sonata for Solo Viola (1991-94):
21.I. Hora Lunga. Lento rubato (ma ritmico)
22.II. Loop. Molto vivace, ritmico - with swing
23.III. Facsar. Andante cantabile ed espressivo, with swing
24.IV. Presto con sordino. So schnell wie möglich
25.V. Lamento. Tempo giusto, intenso e barbaro
26.VI. Chaconne chromatique. Vivace appassionato (molto ritmico e feroce)

Exact Audio Copy V1.0 beta 3 from 29. August 2011

EAC extraction logfile from 18. January 2014, 3:31

Pierre-Laurent Aimard - London Winds - Tabea Zimmerman / Ligeti - Chamber Music - Wind Quintets, Trio for Violin, Horn and Piano, Solo Viola Sonata - CD7

Used drive : ATAPI iHAS122 C Adapter: 0 ID: 1

Read mode : Secure
Utilize accurate stream : Yes
Defeat audio cache : Yes
Make use of C2 pointers : No

Read offset correction : 6
Overread into Lead-In and Lead-Out : No
Fill up missing offset samples with silence : Yes
Delete leading and trailing silent blocks : No
Null samples used in CRC calculations : Yes
Used interface : Installed external ASPI interface

Used output format : User Defined Encoder
Selected bitrate : 192 kBit/s
Quality : High
Add ID3 tag : No
Command line compressor : C:\Program Files\Exact Audio Copy\Flac\flac.exe
Additional command line options : -V -8 -T "Date=%year%" -T "Genre=%genre%" %source%


TOC of the extracted CD

Track | Start | Length | Start sector | End sector
––––––––––––––––––––––––––––-
1 | 0:00.00 | 6:13.22 | 0 | 27996
2 | 6:13.22 | 5:28.28 | 27997 | 52624
3 | 11:41.50 | 3:17.37 | 52625 | 67436
4 | 14:59.12 | 7:48.00 | 67437 | 102536
5 | 22:47.12 | 2:17.03 | 102537 | 112814
6 | 25:04.15 | 0:44.72 | 112815 | 116186
7 | 25:49.12 | 1:36.53 | 116187 | 123439
8 | 27:25.65 | 0:52.15 | 123440 | 127354
9 | 28:18.05 | 0:28.07 | 127355 | 129461
10 | 28:46.12 | 1:04.70 | 129462 | 134331
11 | 29:51.07 | 0:57.55 | 134332 | 138661
12 | 30:48.62 | 2:36.60 | 138662 | 150421
13 | 33:25.47 | 1:08.65 | 150422 | 155586
14 | 34:34.37 | 1:08.13 | 155587 | 160699
15 | 35:42.50 | 1:10.40 | 160700 | 165989
16 | 36:53.15 | 3:01.15 | 165990 | 179579
17 | 39:54.30 | 2:38.60 | 179580 | 191489
18 | 42:33.15 | 0:58.40 | 191490 | 195879
19 | 43:31.55 | 2:25.25 | 195880 | 206779
20 | 45:57.05 | 1:35.05 | 206780 | 213909
21 | 47:32.10 | 5:48.57 | 213910 | 240066
22 | 53:20.67 | 2:20.30 | 240067 | 250596
23 | 55:41.22 | 6:58.00 | 250597 | 281946
24 | 62:39.22 | 1:38.00 | 281947 | 289296
25 | 64:17.22 | 3:23.13 | 289297 | 304534
26 | 67:40.35 | 3:20.37 | 304535 | 319571


Range status and errors

Selected range

Filename C:\Program Files\Exact Audio Copy\Flac\Ligeti - Chamber Music - CD7.wav

Peak level 100.0 %
Extraction speed 10.4 X
Range quality 100.0 %
Test CRC 7A7EC5E9
Copy CRC 7A7EC5E9
Copy OK

No errors occurred


AccurateRip summary

Track 1 accurately ripped (confidence 4) [06F7E3F9] (AR v2)
Track 2 accurately ripped (confidence 4) [278E4A27] (AR v2)
Track 3 accurately ripped (confidence 4) [9E78A60F] (AR v2)
Track 4 accurately ripped (confidence 4) [5AA2B5F6] (AR v2)
Track 5 accurately ripped (confidence 4) [16CA28EE] (AR v2)
Track 6 accurately ripped (confidence 4) [761F5F2C] (AR v2)
Track 7 accurately ripped (confidence 4) [61C1BFB6] (AR v2)
Track 8 accurately ripped (confidence 4) [61EB3976] (AR v2)
Track 9 accurately ripped (confidence 4) [608D4A51] (AR v2)
Track 10 accurately ripped (confidence 4) [C3AFA4A9] (AR v2)
Track 11 accurately ripped (confidence 4) [85BB6D66] (AR v2)
Track 12 accurately ripped (confidence 4) [00591958] (AR v2)
Track 13 accurately ripped (confidence 4) [455D8CAD] (AR v2)
Track 14 accurately ripped (confidence 4) [C3414FC4] (AR v2)
Track 15 accurately ripped (confidence 4) [6346091F] (AR v2)
Track 16 accurately ripped (confidence 4) [60865777] (AR v2)
Track 17 accurately ripped (confidence 4) [1F3DA900] (AR v2)
Track 18 accurately ripped (confidence 4) [0C7E88DA] (AR v2)
Track 19 accurately ripped (confidence 4) [6643E854] (AR v2)
Track 20 accurately ripped (confidence 4) [FB37C47B] (AR v2)
Track 21 accurately ripped (confidence 4) [D9878FC9] (AR v2)
Track 22 accurately ripped (confidence 4) [89C9E731] (AR v2)
Track 23 accurately ripped (confidence 4) [B6E51013] (AR v2)
Track 24 accurately ripped (confidence 4) [6BC17FFF] (AR v2)
Track 25 accurately ripped (confidence 4) [C9152B0A] (AR v2)
Track 26 accurately ripped (confidence 4) [D27E9AEE] (AR v2)

All tracks accurately ripped

End of status report

==== Log checksum 0B6F866461052332CA9430ADE92E08A7F0881B3087659471EDCE759C788CC5E4 ====