Tags
Language
Tags

Daryl Hall & John Oates - Whole Oats (1972) {2008 American Beat} **[RE-UP]**

Posted By: TestTickles
Daryl Hall & John Oates - Whole Oats (1972) {2008 American Beat} **[RE-UP]**

Daryl Hall & John Oates - Whole Oats (1972) {2008 American Beat}
EAC Rip | FLAC with CUE and log | scans | 207 mb
MP3 CBR 320kbps | RAR | 100 mb
Genre: pop, pop rock

Whole Oats is the 1972 debut album by Philadelphia, Pennsylvania duo Daryl Hall & John Oates. This pressing was released by American Beat on 12 February, 2008.
Hall and Oates already live in history as a revered duo of Philly Soul, and with good reason. They simply were extraordinary in their music. On their first album, before the ear-catching Abandoned Luncheonette, and the following War Babies, and plenty before the first hit-yielding RCA debut with “Sara Smile,” Hall & Oates were cutting their teeth with a decent album called Whole Oats.

Whole Oats was released by Atlantic Records in 1972, and was produced by noted in-house producer, Arif Mardin. Its collection of eleven originals were the forerunner of what we would come to expect from the very talented duo. There are songs on this album that dynamically hint at what the two singers would become, some more so than others. “I’m Sorry” embodies the familiar sound pretty well.

American Beat Records has saw fit to return this embryonic album to the people who loved the duo throughout their successful run on the charts. Although Whole Oats doesn’t elicit the whole of what Daryl and John would become, it certainly gives some insight to the formation and development of the Hall and Oates sound. Consider this album the ultrasound of a healthy baby.

Daryl Hall & John Oates - Whole Oats (1972) {2008 American Beat} **[RE-UP]**

01. I'm Sorry
02. All Our Love
03. Georgie
04. Fall In Philadelphia
05. Waterwheel
06. Lazyman
07. Goodnight And Goodmorning
08. They Needed Each Other
09. Southeast City Window
10. Thank You For
11. Lilly (Are You Happy)

–-
Daryl Hall-keyboards, mandolin & vocals
John Oates-guitars & vocals, with…

Mike McCarthy-bass
Jim Helmer-drums & percussion

ADDITIONAL MUSICIANS:
Jerry Ricks-guitar on "Southeast City Window"
Bill Keith-Pedal steel on "All Our Love" and "Southeast City Window"

The arrangements are by Whole Oats
The string, horn & woodwind arrangements are by Arif Mardin
The cello on "Southeast City Window" arranged by Daryl Hall
The chorus on "Fall In Philadelphia" dedicated to the "Philly" rhythm section
–-
Produced by Arif Mardin
Recorded at Atlantic Recording Studio, New York, NY
Recording engineer: Gene Paul
Additional engineering by Lew Hahn
Re-mix engineers: Arif Mardin & Gene Paul

Exact Audio Copy V0.99 prebeta 3 from 28. July 2007

EAC extraction logfile from 4. April 2008, 7:34

Daryl Hall & John Oates / Whole Oats

Used drive : LITE-ON DVDRW SOHW-1633S Adapter: 0 ID: 0

Read mode : Secure
Utilize accurate stream : Yes
Defeat audio cache : Yes
Make use of C2 pointers : No

Read offset correction : 12
Overread into Lead-In and Lead-Out : No
Fill up missing offset samples with silence : Yes
Delete leading and trailing silent blocks : No
Null samples used in CRC calculations : Yes
Used interface : Installed external ASPI interface
Gap handling : Appended to previous track

Used output format : Internal WAV Routines
Sample format : 44.100 Hz; 16 Bit; Stereo


TOC of the extracted CD

Track | Start | Length | Start sector | End sector
––––––––––––––––––––––––––––-
1 | 0:00.00 | 3:08.48 | 0 | 14147
2 | 3:08.48 | 2:43.48 | 14148 | 26420
3 | 5:52.21 | 2:46.48 | 26421 | 38918
4 | 8:38.69 | 4:01.48 | 38919 | 57041
5 | 12:40.42 | 3:56.48 | 57042 | 74789
6 | 16:37.15 | 3:20.48 | 74790 | 89837
7 | 19:57.63 | 3:19.48 | 89838 | 104810
8 | 23:17.36 | 4:00.48 | 104811 | 122858
9 | 27:18.09 | 2:34.48 | 122859 | 134456
10 | 29:52.57 | 4:39.48 | 134457 | 155429
11 | 34:32.30 | 4:10.48 | 155430 | 174227


Track 1

Filename D:\FLAC\Daryl Hall & John Oates - Whole Oats (1972) [FLAC] {2008 American Beat}\01 - I'm Sorry.wav

Pre-gap length 0:00:02.00

Peak level 100.0 %
Track quality 99.9 %
Test CRC C96D88C4
Copy CRC C96D88C4
Track not present in AccurateRip database
Copy OK

Track 2

Filename D:\FLAC\Daryl Hall & John Oates - Whole Oats (1972) [FLAC] {2008 American Beat}\02 - All Our Love.wav

Peak level 94.9 %
Track quality 100.0 %
Test CRC 9BCFEF37
Copy CRC 9BCFEF37
Track not present in AccurateRip database
Copy OK

Track 3

Filename D:\FLAC\Daryl Hall & John Oates - Whole Oats (1972) [FLAC] {2008 American Beat}\03 - Georgie.wav

Peak level 98.6 %
Track quality 100.0 %
Test CRC 92C6B18C
Copy CRC 92C6B18C
Track not present in AccurateRip database
Copy OK

Track 4

Filename D:\FLAC\Daryl Hall & John Oates - Whole Oats (1972) [FLAC] {2008 American Beat}\04 - Fall In Philadelphia.wav

Peak level 99.9 %
Track quality 100.0 %
Test CRC A17B5D63
Copy CRC A17B5D63
Track not present in AccurateRip database
Copy OK

Track 5

Filename D:\FLAC\Daryl Hall & John Oates - Whole Oats (1972) [FLAC] {2008 American Beat}\05 - Waterwheel.wav

Peak level 39.3 %
Track quality 100.0 %
Test CRC 357655B2
Copy CRC 357655B2
Track not present in AccurateRip database
Copy OK

Track 6

Filename D:\FLAC\Daryl Hall & John Oates - Whole Oats (1972) [FLAC] {2008 American Beat}\06 - Lazyman.wav

Peak level 86.1 %
Track quality 100.0 %
Test CRC 46297199
Copy CRC 46297199
Track not present in AccurateRip database
Copy OK

Track 7

Filename D:\FLAC\Daryl Hall & John Oates - Whole Oats (1972) [FLAC] {2008 American Beat}\07 - Goodnight And Goodmorning.wav

Peak level 98.4 %
Track quality 100.0 %
Test CRC 6E601D7D
Copy CRC 6E601D7D
Track not present in AccurateRip database
Copy OK

Track 8

Filename D:\FLAC\Daryl Hall & John Oates - Whole Oats (1972) [FLAC] {2008 American Beat}\08 - They Needed Each Other.wav

Peak level 45.6 %
Track quality 100.0 %
Test CRC BC00813E
Copy CRC BC00813E
Track not present in AccurateRip database
Copy OK

Track 9

Filename D:\FLAC\Daryl Hall & John Oates - Whole Oats (1972) [FLAC] {2008 American Beat}\09 - Southeast City Window.wav

Peak level 42.6 %
Track quality 100.0 %
Test CRC 3F05ACCD
Copy CRC 3F05ACCD
Track not present in AccurateRip database
Copy OK

Track 10

Filename D:\FLAC\Daryl Hall & John Oates - Whole Oats (1972) [FLAC] {2008 American Beat}\10 - Thank You For.wav

Peak level 55.2 %
Track quality 100.0 %
Test CRC B23FA253
Copy CRC B23FA253
Track not present in AccurateRip database
Copy OK

Track 11

Filename D:\FLAC\Daryl Hall & John Oates - Whole Oats (1972) [FLAC] {2008 American Beat}\11 - Lilly (Are You Happy).wav

Peak level 86.7 %
Track quality 100.0 %
Test CRC A6A95746
Copy CRC A6A95746
Track not present in AccurateRip database
Copy OK


None of the tracks are present in the AccurateRip database

No errors occurred

End of status report


Daryl Hall & John Oates - Whole Oats (1972) {2008 American Beat} **[RE-UP]**