Tags
Language
Tags

William Christie, Les Arts Florissants, Giovanni Antonini, Eva Mei - Handel: Acis and Galatea, Theodora, Solo Cantatas (2008)

Posted By: ArlegZ
William Christie, Les Arts Florissants, Giovanni Antonini, Eva Mei - Handel: Acis and Galatea, Theodora, Solo Cantatas (2008)

William Christie, Les Arts Florissants, Giovanni Antonini, Il Giardino Armonico, Eva Mei - Handel: Acis and Galatea, Theodora, Solo Cantatas [6CDs] (2008)
EAC | FLAC | Image (Cue & Log) ~ 1.45 Mb | Total time: 05:24:22 | Scans included
Classical | Label: Warner Classics | # 2564 69564-1 | Recorded: 1999, 2003

William Christie’s account on Erato is probably now a first recommendation… he has marshalled expert singers; Alan Ewing’s Polyphemus is particularly good, well characterized and spirited. Indeed, the whole performance is full of life and personality, and Christie holds everything together with finesse and grace.
–Penguin Guide

Christie has elected to give a ‘chamber version’ of the work, that is, with forces akin to those Handel used for his original Cannons performances: probably five singers and between seven and a dozen instrumentalists… it is a polished and strongly characterized performance, finely recorded, and is certainly the first we would urge anyone to try.
–Gramophone

Performer:
Acis and Galatea (Masque in two acts, HWV 49a)
Galatea – Sophie Daneman
Damon – Patricia Petibon
Acis – Paul Agnew
Coridon – Joseph Cornwell
Polyphemus – Alan Ewing
Les Arts Florissants
Conductor - William Christie

Theodora (Oratorio in three parts, HWV 68)
Theodora – Sophie Daneman
Didymus - Daniel Taylor
Septimius – Richard Croft
Valens – Nathan Berg
Irene – Juliette Galstian
Messenger – Laurent Slaars
Les Arts Florissants
Conductor - William Christie

Solo Cantatas (HWV 110, HWV105, HWV 145)
Eva Mei, soprano
Il Giardino Armonico
Conductor - Giovanni Antonini


CD1:
Acis and Galatea
01. Act One. Sinfonia - Presto
02. Chorus: "Oh, The Pleasure Of The Plains"
03. Recitativo (Galatea): "Ye Verdant Plains And Woody Mountains"
04. Andante (Galatea): "Hush, Ye Pretty Warbling Quire!"
05. Air (Acis): "Where Shall I Seek The Charming Fair?"
06. Recitative (Damon): "Stay, Shepherd, Stay!"
07. Air (Damon): "Shepherd, What Art Thou Pursuing"
08. Recitativo (Acis): "Lo! Here My Love"
09. Air (Acis): "Love In Her Eyes Sits Playing"
10. Recitativo (Galatea): "Oh ! Didst Thou Know The Pains"
11. Air (Galatea): "As When The Dove Laments Her Love"
12. Duet (Acis, Galatea): "Happy We!"
13. Chorus: "Happy We!"
CD2:
01. Act Two. Chorus: "Wretched Lovers!"
02. Accompagnato (Polyphemus): "I Rage, I Melt, I Burn"
03. Air (Polyphemus): "O Ruddier Than The Cherry"
04. Recitativo (Polyphemus, Galatea): "Whither, Fairest, Art Thou Running"
05 Air (Polyphemus): "Cease To Beauty To Be Suing"
06. Air (Damon): "Would You Gain The Tender Creature"
07. Recitativo (Acis): "His Hideous Love Provokes My Rage"
08. Air (Acis): "Love Sounds Th'alarm"
09. Air (Goridon): "Consider, Fond Shepherd"
10. Recitativo (Galatea): "Cease, Oh Cease, Thou Gentle Youth"
11. Trio (Acis, Galatea, Polyphemus): "The Flocks Shall Leave The Mountains"
12. Recitativo Accompagnato (Acis): "Help, Galatea! Help, Ye Parent Gods
13. Chorus - Adagio Ma Non Troppo: "Mourn, All Ye Muses!"
14. Air & Chorus (Galatea, Ghorus): "Must I My Acis Still Bemoan"
15. Recitativo (Galatea): "Lis Done : Thus I Exert Pow'r Divine"
16. Air (Galatea): "Heart, The Seat Of Soft Delight"
17. Chorus: "Galatea, Dry Thy Tears"
CD3:
Theodora (Oratorio in three parts, HWV 68)
01. Ouverture: [Grave] - Allegro
02. Trio
03. Courante
04. Part One. Recitative: Tis Diocletian's natal day
05. Air: Go, my faithful soldier, go (Valens)
06. Chorus of Heathens: And draw a blessing down
07. Recitative: Vouchsafe, dread Sir, a gracious ear
08. Air: Racks, gibbets, sword and fire (Valens)
09. Chorus of Heathens: For ever thus stands fixed the doom
10. Recitative: Most cruel edict!
11. Air: The rapture'd soul defies the sword (Didymus)
12. Recitative: I know thy virtues
13. Air: Descend, kind pity, heav'nly guest (Septimius)
14. Recitative: Tho' hard, my friends
15. Air: Fond, flatt'ring world, adieu! (Theodora)
16. Recitative: O bright example of all goodness!
17. Air: Bane of virtue (Irene)
18. Chorus of Christians: Come, mighty Father
19. Recitative: Fly, fly, my brethren
20. Air: As with rosy steps the morn (Irene)
21. Chorus of Christians: All pow'r in Heav'n above
22. Recitative: Mistaken wretches!
23. Air: Dread the fruits of Christian folly (Septimius)
24. Recitative: Deluded mortal!
25. Accompagnato: O worse than death indeed! (Theodora)
26. Air: Angels, ever bright and fair (Theodora)
27. Recitative: Unhappy, happy crew!
28. Air: Kind Heav'n, if Virtue be thy care (Didymus)
29. Recitative: O love, how great thy pow'r!
30. Chorus of Christians: Go, gen'rous, pious youth
CD4:
01. Part Two. Recitative: Ye men of Antioch
02. Chorus of Heathens: Queen of summer, queen of love
03. Air: Wide spread his name (Valens)
04. Recitative: Return, Septimius
05. Chorus of Heathens: Venus, laughing from the skies
06. Symphony
07. Recitative: O thou bright sun!
08. Air: With darkness deep as is my woe (Theodora)
09. Symphony
10. Recitative: But why art thou disquieted, my soul?
11. Air: Oh, that I on wings could rise (Theodora)
12. Recitative: Long have I known
13. Air: Tho' the honours yhat Flora and Venus receive (Septimius)
14. Recitative: O save her then
15. Air: Deeds of kindness to display (Didymus)
16. Recitative: The clouds begin to veil the hemisphere
17. Air: Defend her, Heav'n (Irene)
18. Recitative: Or lulled with grief
19. Air: Sweet rose and lily, flow'ry form (Didymus)
20. Recitative: O save me, Heav'n
21. Air: The pilgrim's home, the sick man's health (Theodora)
22. Accompagnato: Forbid it, Heav'n! (Didymus)
23. Recitative "Or say, what right have I to take
24. Duet: To Thee, Thou Glorious son of worth (Theodora, Didymus)
25. Recitative: 'Tis night, but night's sweet blessing
26. Chorus of Christians: He saw the lovely youth
CD5:
01. Part Three. Air: Lord, to thee, each night and day (Irene)
02. Recitative: But see the good, the virtuous Didymus!
03. Air: When sunk in anguish and despair (Theodora)
04. Solo and Chorus: Blest be the hand (Theodora)
05. Recitative: Undaunted in the Court stands Didymus
06. Accompagnato: O my Irene, Heav'n is kind (Theodora)
07. Duet: Whither, Princess, do you fly (Irene, Theodora)
08. Recitative: She's gone, disdaining liberty and life
09. Air: New scenes of joy come crowding on (Irene)
10. Recitative: Is it a Christian virtue, then
11. Air: From Virtue springs each gen'rous deed (Septimius)
12. Air: Cease, ye slaves, your fruitless pray'r (Valens)
13. Recitative: Tis kind, my friends
14. Chorus of Heathens: How strange their ends
15. Recitative: On me your frowns
16. Recitative: And must such beauty suffer?
17. Air and Duet: Streams of pleasure ever flowing (Didymus, Theodora)
18. Recitative: Ere this their doom is past
19. Chorus of Christians: O love divine, thou source of fame
CD6:
Agrippina condotta a morire (HWV 110)
01. Recitativo: Dunque sarà pur vero
02. Aria: Orrida, oscura
03. Recitativo: Ma pria che d'empia morte
04. Aria: Renda cenere il tiranno
05. Recitativo: Sì, sì, del gran tiranno
06. Arioso e Recitativo: Come, o Dio! …
07. Aria: Se infelice al mondo vissi
08. Recitativo: Prema l'ingrato figlio
09. Aria: Su, lacerate il seno
10. Recitativo: Ecco a morte già corro
Armida abbandonata (HWV 105)
11. Accompagnato: Dietro l'orme fugaci
12. Aria: Ah! crudele, e pur ten' vai
13. Recitativo: Per te mi struggo
14. Accompagnato: O voi, dell'incostante
15. Aria: Venti, venti, fermate, sì
16. Recitativo: Ma che parlo, che dico?
17. Aria: In tanti affanni miei
La Lucrezia (HWV 145)
18. Recitativo: O Numi eterni! O stelle!
19. Aria: Già superbo del mio affanno
20. Recitativo: Ma voi force nel Cielo
21. Aria: Il suol che preme
22. Recitativo: Ah! che ancor nell'abisso
23. Aria: Alla salma infedel
24. Recitativo: A voi, padre, consorte, a Roma
25. Arioso: Già nel seno comincia



Exact Audio Copy V1.6 from 23. October 2020

EAC extraction logfile from 13. September 2021, 16:09

William Christie, Les Arts Florissants / Handel - Acis and Galatea (I)

Used drive : PIONEER DVD-RW DVR-218L Adapter: 1 ID: 0

Read mode : Secure
Utilize accurate stream : Yes
Defeat audio cache : Yes
Make use of C2 pointers : No

Read offset correction : 6
Overread into Lead-In and Lead-Out : No
Fill up missing offset samples with silence : Yes
Delete leading and trailing silent blocks : No
Null samples used in CRC calculations : Yes
Used interface : Native Win32 interface for Win NT & 2000

Used output format : User Defined Encoder
Selected bitrate : 128 kBit/s
Quality : High
Add ID3 tag : No
Command line compressor : C:\Program Files\Exact Audio Copy\Flac\flac.exe
Additional command line options : -V -8 -T "Date=%year%" -T "Genre=%genre%" %source%


TOC of the extracted CD

Track | Start | Length | Start sector | End sector
––––––––––––––––––––––––––––-
1 | 0:00.00 | 3:15.27 | 0 | 14651
2 | 3:15.27 | 4:47.50 | 14652 | 36226
3 | 8:03.02 | 0:41.53 | 36227 | 39354
4 | 8:44.55 | 6:29.44 | 39355 | 68573
5 | 15:14.24 | 3:02.53 | 68574 | 82276
6 | 18:17.02 | 0:19.28 | 82277 | 83729
7 | 18:36.30 | 3:58.24 | 83730 | 101603
8 | 22:34.54 | 0:25.18 | 101604 | 103496
9 | 22:59.72 | 6:05.60 | 103497 | 130931
10 | 29:05.57 | 0:13.33 | 130932 | 131939
11 | 29:19.15 | 6:07.63 | 131940 | 159527
12 | 35:27.03 | 2:40.49 | 159528 | 171576
13 | 38:07.52 | 1:11.25 | 171577 | 176926


Range status and errors

Selected range

Filename C:\ArlegZ\Handel - Acis and Galatea - William Christie (I).wav

Peak level 99.2 %
Extraction speed 1.6 X
Range quality 100.0 %
Test CRC 3B335BE7
Copy CRC 3B335BE7
Copy OK

No errors occurred


AccurateRip summary

Track 1 accurately ripped (confidence 1) [1413A414] (AR v2)
Track 2 accurately ripped (confidence 1) [3CAD209F] (AR v2)
Track 3 accurately ripped (confidence 1) [2C361096] (AR v2)
Track 4 accurately ripped (confidence 1) [737C9990] (AR v2)
Track 5 accurately ripped (confidence 1) [1F5D4D29] (AR v2)
Track 6 accurately ripped (confidence 1) [52157ECF] (AR v2)
Track 7 accurately ripped (confidence 1) [C978937E] (AR v2)
Track 8 accurately ripped (confidence 1) [ABCE9D06] (AR v2)
Track 9 accurately ripped (confidence 1) [0B2D3C82] (AR v2)
Track 10 accurately ripped (confidence 1) [DDE7294F] (AR v2)
Track 11 accurately ripped (confidence 1) [95548BF0] (AR v2)
Track 12 accurately ripped (confidence 1) [4D84F3BB] (AR v2)
Track 13 accurately ripped (confidence 1) [DF51F6E9] (AR v2)

All tracks accurately ripped

End of status report

–– CUETools DB Plugin V2.1.6

[CTDB TOCID: LWPGoHHT2CF8rEUtamCV6JgAXRs-] found
Submit result: LWPGoHHT2CF8rEUtamCV6JgAXRs- has been confirmed
Track | CTDB Status
1 | (10/10) Accurately ripped
2 | (10/10) Accurately ripped
3 | (10/10) Accurately ripped
4 | (10/10) Accurately ripped
5 | (10/10) Accurately ripped
6 | (10/10) Accurately ripped
7 | (10/10) Accurately ripped
8 | (10/10) Accurately ripped
9 | (10/10) Accurately ripped
10 | (10/10) Accurately ripped
11 | (10/10) Accurately ripped
12 | (10/10) Accurately ripped
13 | (10/10) Accurately ripped


==== Log checksum DE0B50E32FCDA91EBB81A7A98112098A8C18260CFA3F17BC4554AB58C2891BAE ====


Exact Audio Copy V1.6 from 23. October 2020

EAC extraction logfile from 13. September 2021, 17:37

William Christie, Les Arts Florissants / Handel - Acis and Galatea (II)

Used drive : PIONEER DVD-RW DVR-218L Adapter: 1 ID: 0

Read mode : Secure
Utilize accurate stream : Yes
Defeat audio cache : Yes
Make use of C2 pointers : No

Read offset correction : 6
Overread into Lead-In and Lead-Out : No
Fill up missing offset samples with silence : Yes
Delete leading and trailing silent blocks : No
Null samples used in CRC calculations : Yes
Used interface : Native Win32 interface for Win NT & 2000

Used output format : User Defined Encoder
Selected bitrate : 128 kBit/s
Quality : High
Add ID3 tag : No
Command line compressor : C:\Program Files\Exact Audio Copy\Flac\flac.exe
Additional command line options : -V -8 -T "Date=%year%" -T "Genre=%genre%" %source%


TOC of the extracted CD

Track | Start | Length | Start sector | End sector
––––––––––––––––––––––––––––-
1 | 0:00.00 | 4:21.72 | 0 | 19646
2 | 4:21.72 | 1:14.65 | 19647 | 25261
3 | 5:36.62 | 3:02.50 | 25262 | 38961
4 | 8:39.37 | 0:55.55 | 38962 | 43141
5 | 9:35.17 | 4:26.55 | 43142 | 63146
6 | 14:01.72 | 5:39.70 | 63147 | 88641
7 | 19:41.67 | 0:21.65 | 88642 | 90281
8 | 20:03.57 | 4:32.55 | 90282 | 110736
9 | 24:36.37 | 6:33.13 | 110737 | 140224
10 | 31:09.50 | 0:24.05 | 140225 | 142029
11 | 31:33.55 | 2:14.05 | 142030 | 152084
12 | 33:47.60 | 1:14.70 | 152085 | 157704
13 | 35:02.55 | 3:41.66 | 157705 | 174345
14 | 38:44.46 | 6:05.66 | 174346 | 201786
15 | 44:50.37 | 0:26.40 | 201787 | 203776
16 | 45:17.02 | 3:36.10 | 203777 | 219986
17 | 48:53.12 | 3:02.65 | 219987 | 233701


Range status and errors

Selected range

Filename C:\ArlegZ\Handel - Acis and Galatea - William Christie (II).wav

Peak level 87.1 %
Extraction speed 1.7 X
Range quality 100.0 %
Test CRC 2F6564E2
Copy CRC 2F6564E2
Copy OK

No errors occurred


AccurateRip summary

Track 1 accurately ripped (confidence 1) [479FDA38] (AR v2)
Track 2 accurately ripped (confidence 1) [53071B39] (AR v2)
Track 3 accurately ripped (confidence 1) [3BF7D2A0] (AR v2)
Track 4 accurately ripped (confidence 1) [03735C07] (AR v2)
Track 5 accurately ripped (confidence 1) [A0851E82] (AR v2)
Track 6 accurately ripped (confidence 1) [7E969386] (AR v2)
Track 7 accurately ripped (confidence 1) [CC708127] (AR v2)
Track 8 accurately ripped (confidence 1) [66E03C43] (AR v2)
Track 9 accurately ripped (confidence 1) [05BC657D] (AR v2)
Track 10 accurately ripped (confidence 1) [62B3B06D] (AR v2)
Track 11 accurately ripped (confidence 1) [787D2F01] (AR v2)
Track 12 accurately ripped (confidence 1) [A8437549] (AR v2)
Track 13 accurately ripped (confidence 1) [A84D5388] (AR v2)
Track 14 accurately ripped (confidence 1) [1A199A2F] (AR v2)
Track 15 accurately ripped (confidence 1) [887050D7] (AR v2)
Track 16 accurately ripped (confidence 1) [E6A4F26A] (AR v2)
Track 17 accurately ripped (confidence 1) [B82CAEE2] (AR v2)

All tracks accurately ripped

End of status report

–– CUETools DB Plugin V2.1.6

[CTDB TOCID: 07E5ab04bL_9lH1zA2FNmiNW91E-] found
Submit result: 07E5ab04bL_9lH1zA2FNmiNW91E- has been confirmed
Track | CTDB Status
1 | (9/9) Accurately ripped
2 | (9/9) Accurately ripped
3 | (9/9) Accurately ripped
4 | (9/9) Accurately ripped
5 | (9/9) Accurately ripped
6 | (9/9) Accurately ripped
7 | (9/9) Accurately ripped
8 | (9/9) Accurately ripped
9 | (9/9) Accurately ripped
10 | (9/9) Accurately ripped
11 | (9/9) Accurately ripped
12 | (9/9) Accurately ripped
13 | (9/9) Accurately ripped
14 | (9/9) Accurately ripped
15 | (9/9) Accurately ripped
16 | (9/9) Accurately ripped
17 | (9/9) Accurately ripped


==== Log checksum 0358CC1D11EEA0C93BD570D62FA071B1614C9C98D306BC826CEAF200707A6E77 ====


Exact Audio Copy V1.6 from 23. October 2020

EAC extraction logfile from 13. September 2021, 18:53

William Christie, Les Arts Florissants / Handel - Theodora (I)

Used drive : PIONEER DVD-RW DVR-218L Adapter: 1 ID: 0

Read mode : Secure
Utilize accurate stream : Yes
Defeat audio cache : Yes
Make use of C2 pointers : No

Read offset correction : 6
Overread into Lead-In and Lead-Out : No
Fill up missing offset samples with silence : Yes
Delete leading and trailing silent blocks : No
Null samples used in CRC calculations : Yes
Used interface : Native Win32 interface for Win NT & 2000

Used output format : User Defined Encoder
Selected bitrate : 128 kBit/s
Quality : High
Add ID3 tag : No
Command line compressor : C:\Program Files\Exact Audio Copy\Flac\flac.exe
Additional command line options : -V -8 -T "Date=%year%" -T "Genre=%genre%" %source%


TOC of the extracted CD

Track | Start | Length | Start sector | End sector
––––––––––––––––––––––––––––-
1 | 0:00.00 | 3:04.58 | 0 | 13857
2 | 3:04.58 | 1:33.06 | 13858 | 20838
3 | 4:37.64 | 1:39.65 | 20839 | 28328
4 | 6:17.54 | 0:32.26 | 28329 | 30754
5 | 6:50.05 | 1:46.37 | 30755 | 38741
6 | 8:36.42 | 2:05.18 | 38742 | 48134
7 | 10:41.60 | 0:55.31 | 48135 | 52290
8 | 11:37.16 | 3:35.72 | 52291 | 68487
9 | 15:13.13 | 1:33.16 | 68488 | 75478
10 | 16:46.29 | 0:31.15 | 75479 | 77818
11 | 17:17.44 | 8:27.62 | 77819 | 115905
12 | 25:45.31 | 0:41.29 | 115906 | 119009
13 | 26:26.60 | 6:16.68 | 119010 | 147277
14 | 32:43.53 | 0:27.65 | 147278 | 149367
15 | 33:11.43 | 4:40.08 | 149368 | 170375
16 | 37:51.51 | 0:29.45 | 170376 | 172595
17 | 38:21.21 | 5:25.61 | 172596 | 197031
18 | 43:47.07 | 3:41.28 | 197032 | 213634
19 | 47:28.35 | 0:59.37 | 213635 | 218096
20 | 48:27.72 | 5:57.01 | 218097 | 244872
21 | 54:24.73 | 2:18.48 | 244873 | 255270
22 | 56:43.46 | 0:19.61 | 255271 | 256756
23 | 57:03.32 | 2:39.64 | 256757 | 268745
24 | 59:43.21 | 1:01.44 | 268746 | 273364
25 | 60:44.65 | 0:26.69 | 273365 | 275383
26 | 61:11.59 | 3:19.71 | 275384 | 290379
27 | 64:31.55 | 1:09.24 | 290380 | 295578
28 | 65:41.04 | 5:27.55 | 295579 | 320158
29 | 71:08.59 | 0:24.01 | 320159 | 321959
30 | 71:32.60 | 5:52.42 | 321960 | 348401


Range status and errors

Selected range

Filename C:\ArlegZ\Handel - Theodora - William Christie (I).wav

Peak level 100.0 %
Extraction speed 2.1 X
Range quality 99.9 %
Test CRC 89DE2381
Copy CRC 89DE2381
Copy OK

No errors occurred


AccurateRip summary

Track 1 accurately ripped (confidence 1) [57611144] (AR v2)
Track 2 accurately ripped (confidence 1) [2DA24C3F] (AR v2)
Track 3 accurately ripped (confidence 1) [9C7115D0] (AR v2)
Track 4 accurately ripped (confidence 1) [2E138913] (AR v2)
Track 5 accurately ripped (confidence 1) [E7E52C96] (AR v2)
Track 6 accurately ripped (confidence 1) [EB837793] (AR v2)
Track 7 accurately ripped (confidence 1) [219E779A] (AR v2)
Track 8 cannot be verified as accurate (confidence 1) [CE43D1B3], AccurateRip returned [B9C65874] (AR v2)
Track 9 accurately ripped (confidence 1) [145C7FF8] (AR v2)
Track 10 accurately ripped (confidence 1) [11DE306D] (AR v2)
Track 11 accurately ripped (confidence 1) [52FBDA1F] (AR v2)
Track 12 accurately ripped (confidence 1) [89C24A01] (AR v2)
Track 13 accurately ripped (confidence 1) [83FF1BC4] (AR v2)
Track 14 accurately ripped (confidence 1) [9E792455] (AR v2)
Track 15 accurately ripped (confidence 1) [95BDD530] (AR v2)
Track 16 accurately ripped (confidence 1) [DDF15E3C] (AR v2)
Track 17 accurately ripped (confidence 1) [B0FF8B65] (AR v2)
Track 18 accurately ripped (confidence 1) [05D7AF30] (AR v2)
Track 19 accurately ripped (confidence 1) [714EA813] (AR v2)
Track 20 accurately ripped (confidence 1) [99F42867] (AR v2)
Track 21 accurately ripped (confidence 1) [C95B7CD4] (AR v2)
Track 22 accurately ripped (confidence 1) [22D62362] (AR v2)
Track 23 accurately ripped (confidence 1) [D004BCCB] (AR v2)
Track 24 accurately ripped (confidence 1) [E97F695A] (AR v2)
Track 25 accurately ripped (confidence 1) [987A772C] (AR v2)
Track 26 accurately ripped (confidence 1) [094485B5] (AR v2)
Track 27 accurately ripped (confidence 1) [78B28EBF] (AR v2)
Track 28 accurately ripped (confidence 1) [4EB80289] (AR v2)
Track 29 accurately ripped (confidence 1) [B834A9AE] (AR v2)
Track 30 accurately ripped (confidence 1) [50192080] (AR v2)

29 треки скопированы точно
1 треки не удалось проверить на точность

Some tracks could not be verified as accurate

End of status report

–– CUETools DB Plugin V2.1.6

[CTDB TOCID: eWmDVbaMk52admqUUdCEKAmnLqM-] found
Submit result: eWmDVbaMk52admqUUdCEKAmnLqM- has been confirmed
Track | CTDB Status
1 | (8/9) Accurately ripped
2 | (9/9) Accurately ripped
3 | (9/9) Accurately ripped
4 | (9/9) Accurately ripped
5 | (9/9) Accurately ripped
6 | (9/9) Accurately ripped
7 | (9/9) Accurately ripped
8 | (9/9) Accurately ripped
9 | (9/9) Accurately ripped
10 | (9/9) Accurately ripped
11 | (9/9) Accurately ripped
12 | (9/9) Accurately ripped
13 | (9/9) Accurately ripped
14 | (9/9) Accurately ripped
15 | (9/9) Accurately ripped
16 | (9/9) Accurately ripped
17 | (9/9) Accurately ripped
18 | (9/9) Accurately ripped
19 | (9/9) Accurately ripped
20 | (9/9) Accurately ripped
21 | (9/9) Accurately ripped
22 | (9/9) Accurately ripped
23 | (9/9) Accurately ripped
24 | (9/9) Accurately ripped
25 | (9/9) Accurately ripped
26 | (9/9) Accurately ripped
27 | (9/9) Accurately ripped
28 | (9/9) Accurately ripped
29 | (9/9) Accurately ripped
30 | (9/9) Accurately ripped


==== Log checksum 245424B745AE782530DCDC2253C9C484E02EB1600551D716953FFEFBA9D00F3A ====


Exact Audio Copy V1.6 from 23. October 2020

EAC extraction logfile from 13. September 2021, 20:00

William Christie, Les Arts Florissants / Handel - Theodora (II)

Used drive : PIONEER DVD-RW DVR-218L Adapter: 1 ID: 0

Read mode : Secure
Utilize accurate stream : Yes
Defeat audio cache : Yes
Make use of C2 pointers : No

Read offset correction : 6
Overread into Lead-In and Lead-Out : No
Fill up missing offset samples with silence : Yes
Delete leading and trailing silent blocks : No
Null samples used in CRC calculations : Yes
Used interface : Native Win32 interface for Win NT & 2000

Used output format : User Defined Encoder
Selected bitrate : 128 kBit/s
Quality : High
Add ID3 tag : No
Command line compressor : C:\Program Files\Exact Audio Copy\Flac\flac.exe
Additional command line options : -V -8 -T "Date=%year%" -T "Genre=%genre%" %source%


TOC of the extracted CD

Track | Start | Length | Start sector | End sector
––––––––––––––––––––––––––––-
1 | 0:00.00 | 0:36.13 | 0 | 2712
2 | 0:36.13 | 0:50.17 | 2713 | 6479
3 | 1:26.30 | 2:14.21 | 6480 | 16550
4 | 3:40.51 | 0:37.52 | 16551 | 19377
5 | 4:18.28 | 1:18.26 | 19378 | 25253
6 | 5:36.54 | 1:06.13 | 25254 | 30216
7 | 6:42.67 | 0:33.46 | 30217 | 32737
8 | 7:16.38 | 3:56.48 | 32738 | 50485
9 | 11:13.11 | 1:48.59 | 50486 | 58644
10 | 13:01.70 | 0:29.62 | 58645 | 60881
11 | 13:31.57 | 3:40.20 | 60882 | 77401
12 | 17:12.02 | 1:08.18 | 77402 | 82519
13 | 18:20.20 | 3:02.28 | 82520 | 96197
14 | 21:22.48 | 0:36.02 | 96198 | 98899
15 | 21:58.50 | 6:33.39 | 98900 | 128413
16 | 28:32.14 | 0:39.26 | 128414 | 131364
17 | 29:11.40 | 4:35.13 | 131365 | 152002
18 | 33:46.53 | 0:34.63 | 152003 | 154615
19 | 34:21.41 | 2:43.68 | 154616 | 166908
20 | 37:05.34 | 1:26.56 | 166909 | 173414
21 | 38:32.15 | 3:19.10 | 173415 | 188349
22 | 41:51.25 | 0:31.74 | 188350 | 190748
23 | 42:23.24 | 1:33.13 | 190749 | 197736
24 | 43:56.37 | 4:34.61 | 197737 | 218347
25 | 48:31.23 | 0:44.57 | 218348 | 221704
26 | 49:16.05 | 5:16.03 | 221705 | 245407


Range status and errors

Selected range

Filename C:\ArlegZ\Handel - Theodora - William Christie (II).wav

Peak level 95.2 %
Extraction speed 1.8 X
Range quality 100.0 %
Test CRC 390A56F9
Copy CRC 390A56F9
Copy OK

No errors occurred


AccurateRip summary

Track 1 accurately ripped (confidence 1) [9EB821CB] (AR v2)
Track 2 accurately ripped (confidence 1) [A6C8E7A8] (AR v2)
Track 3 accurately ripped (confidence 1) [387C3C25] (AR v2)
Track 4 accurately ripped (confidence 1) [13BA4B46] (AR v2)
Track 5 accurately ripped (confidence 1) [52CCAB0D] (AR v2)
Track 6 accurately ripped (confidence 1) [ED382419] (AR v2)
Track 7 accurately ripped (confidence 1) [CD4DB18A] (AR v2)
Track 8 accurately ripped (confidence 1) [366A4FCD] (AR v2)
Track 9 accurately ripped (confidence 1) [129CADD4] (AR v2)
Track 10 accurately ripped (confidence 1) [8DEC3C1E] (AR v2)
Track 11 accurately ripped (confidence 1) [EA85C4C8] (AR v2)
Track 12 accurately ripped (confidence 1) [41B0F34B] (AR v2)
Track 13 accurately ripped (confidence 1) [BA04F9E1] (AR v2)
Track 14 accurately ripped (confidence 1) [7FAAD3BA] (AR v2)
Track 15 accurately ripped (confidence 1) [0274EC27] (AR v2)
Track 16 accurately ripped (confidence 1) [A47EF9C3] (AR v2)
Track 17 accurately ripped (confidence 1) [DECF7634] (AR v2)
Track 18 accurately ripped (confidence 1) [F36F5553] (AR v2)
Track 19 accurately ripped (confidence 1) [A5AFC060] (AR v2)
Track 20 accurately ripped (confidence 1) [8F9191FB] (AR v2)
Track 21 accurately ripped (confidence 1) [2E6A63D7] (AR v2)
Track 22 accurately ripped (confidence 1) [EAFC6555] (AR v2)
Track 23 accurately ripped (confidence 1) [51B4E4FE] (AR v2)
Track 24 accurately ripped (confidence 1) [8879E7C5] (AR v2)
Track 25 accurately ripped (confidence 1) [481A2843] (AR v2)
Track 26 accurately ripped (confidence 1) [AC43B626] (AR v2)

All tracks accurately ripped

End of status report

–– CUETools DB Plugin V2.1.6

[CTDB TOCID: zALdgvO9anahTBBrmWHa7Txkyjs-] found
Submit result: zALdgvO9anahTBBrmWHa7Txkyjs- has been confirmed
Track | CTDB Status
1 | (11/11) Accurately ripped
2 | (11/11) Accurately ripped
3 | (11/11) Accurately ripped
4 | (11/11) Accurately ripped
5 | (11/11) Accurately ripped
6 | (11/11) Accurately ripped
7 | (11/11) Accurately ripped
8 | (11/11) Accurately ripped
9 | (11/11) Accurately ripped
10 | (11/11) Accurately ripped
11 | (11/11) Accurately ripped
12 | (11/11) Accurately ripped
13 | (11/11) Accurately ripped
14 | (11/11) Accurately ripped
15 | (11/11) Accurately ripped
16 | (11/11) Accurately ripped
17 | (11/11) Accurately ripped
18 | (11/11) Accurately ripped
19 | (11/11) Accurately ripped
20 | (11/11) Accurately ripped
21 | (11/11) Accurately ripped
22 | (11/11) Accurately ripped
23 | (11/11) Accurately ripped
24 | (11/11) Accurately ripped
25 | (11/11) Accurately ripped
26 | (11/11) Accurately ripped


==== Log checksum 732D95D6D1CC90213C2A4720496F2DC21102D58C34C540D1C04B49613F46B729 ====


Exact Audio Copy V1.6 from 23. October 2020

EAC extraction logfile from 13. September 2021, 21:01

William Christie, Les Arts Florissants / Handel - Theodora (III)

Used drive : PIONEER DVD-RW DVR-218L Adapter: 1 ID: 0

Read mode : Secure
Utilize accurate stream : Yes
Defeat audio cache : Yes
Make use of C2 pointers : No

Read offset correction : 6
Overread into Lead-In and Lead-Out : No
Fill up missing offset samples with silence : Yes
Delete leading and trailing silent blocks : No
Null samples used in CRC calculations : Yes
Used interface : Native Win32 interface for Win NT & 2000

Used output format : User Defined Encoder
Selected bitrate : 128 kBit/s
Quality : High
Add ID3 tag : No
Command line compressor : C:\Program Files\Exact Audio Copy\Flac\flac.exe
Additional command line options : -V -8 -T "Date=%year%" -T "Genre=%genre%" %source%


TOC of the extracted CD

Track | Start | Length | Start sector | End sector
––––––––––––––––––––––––––––-
1 | 0:00.00 | 4:20.16 | 0 | 19515
2 | 4:20.16 | 0:36.35 | 19516 | 22250
3 | 4:56.51 | 4:29.43 | 22251 | 42468
4 | 9:26.19 | 3:26.45 | 42469 | 57963
5 | 12:52.64 | 0:45.73 | 57964 | 61411
6 | 13:38.62 | 0:34.10 | 61412 | 63971
7 | 14:12.72 | 1:17.57 | 63972 | 69803
8 | 15:30.54 | 0:31.20 | 69804 | 72148
9 | 16:01.74 | 3:29.43 | 72149 | 87866
10 | 19:31.42 | 1:53.32 | 87867 | 96373
11 | 21:24.74 | 7:04.65 | 96374 | 128238
12 | 28:29.64 | 1:04.74 | 128239 | 133112
13 | 29:34.63 | 0:55.43 | 133113 | 137280
14 | 30:30.31 | 4:24.30 | 137281 | 157110
15 | 34:54.61 | 0:43.09 | 157111 | 160344
16 | 35:37.70 | 0:39.02 | 160345 | 163271
17 | 36:16.72 | 5:20.03 | 163272 | 187274
18 | 41:37.00 | 0:25.50 | 187275 | 189199
19 | 42:02.50 | 4:09.22 | 189200 | 207896


Range status and errors

Selected range

Filename C:\ArlegZ\Handel - Theodora - William Christie (III).wav

Peak level 82.7 %
Extraction speed 1.7 X
Range quality 100.0 %
Test CRC E45CE10F
Copy CRC E45CE10F
Copy OK

No errors occurred


AccurateRip summary

Track 1 accurately ripped (confidence 1) [50A9EEEB] (AR v2)
Track 2 accurately ripped (confidence 1) [3DE69BE7] (AR v2)
Track 3 accurately ripped (confidence 1) [07362485] (AR v2)
Track 4 accurately ripped (confidence 1) [A7282842] (AR v2)
Track 5 accurately ripped (confidence 1) [952311B8] (AR v2)
Track 6 accurately ripped (confidence 1) [A25C3142] (AR v2)
Track 7 accurately ripped (confidence 1) [B95B868B] (AR v2)
Track 8 accurately ripped (confidence 1) [27862ACF] (AR v2)
Track 9 accurately ripped (confidence 1) [41520D34] (AR v2)
Track 10 accurately ripped (confidence 1) [DC42B899] (AR v2)
Track 11 accurately ripped (confidence 1) [059A6284] (AR v2)
Track 12 accurately ripped (confidence 1) [3C9D2F44] (AR v2)
Track 13 accurately ripped (confidence 1) [1364E780] (AR v2)
Track 14 accurately ripped (confidence 1) [CAB35728] (AR v2)
Track 15 accurately ripped (confidence 1) [15E43BB8] (AR v2)
Track 16 accurately ripped (confidence 1) [C7FF8FAC] (AR v2)
Track 17 accurately ripped (confidence 1) [3EB86910] (AR v2)
Track 18 accurately ripped (confidence 1) [D7B4A337] (AR v2)
Track 19 accurately ripped (confidence 1) [37837218] (AR v2)

All tracks accurately ripped

End of status report

–– CUETools DB Plugin V2.1.6

[CTDB TOCID: tlySB85FXAUmMfRmQIKROgrxyBo-] found
Submit result: tlySB85FXAUmMfRmQIKROgrxyBo- has been confirmed
Track | CTDB Status
1 | (9/9) Accurately ripped
2 | (9/9) Accurately ripped
3 | (9/9) Accurately ripped
4 | (9/9) Accurately ripped
5 | (9/9) Accurately ripped
6 | (9/9) Accurately ripped
7 | (9/9) Accurately ripped
8 | (9/9) Accurately ripped
9 | (9/9) Accurately ripped
10 | (9/9) Accurately ripped
11 | (9/9) Accurately ripped
12 | (9/9) Accurately ripped
13 | (9/9) Accurately ripped
14 | (9/9) Accurately ripped
15 | (9/9) Accurately ripped
16 | (9/9) Accurately ripped
17 | (9/9) Accurately ripped
18 | (9/9) Accurately ripped
19 | (9/9) Accurately ripped


==== Log checksum 1BF27BB7B7AC2C8CFF4B1170D80BF58DE3EF180634F8C547CA614068E5339B36 ====


Exact Audio Copy V1.6 from 23. October 2020

EAC extraction logfile from 15. September 2021, 14:14

Eva Mei, Giovanni Antonini, Il Giardino Armonico / Handel - Agrippina, Armida, La Lucrezia

Used drive : PIONEER DVD-RW DVR-218L Adapter: 1 ID: 0

Read mode : Secure
Utilize accurate stream : Yes
Defeat audio cache : Yes
Make use of C2 pointers : No

Read offset correction : 6
Overread into Lead-In and Lead-Out : No
Fill up missing offset samples with silence : Yes
Delete leading and trailing silent blocks : No
Null samples used in CRC calculations : Yes
Used interface : Native Win32 interface for Win NT & 2000

Used output format : User Defined Encoder
Selected bitrate : 128 kBit/s
Quality : High
Add ID3 tag : No
Command line compressor : C:\Program Files\Exact Audio Copy\Flac\flac.exe
Additional command line options : -V -8 -T "Date=%year%" -T "Genre=%genre%" %source%


TOC of the extracted CD

Track | Start | Length | Start sector | End sector
––––––––––––––––––––––––––––-
1 | 0:00.00 | 1:00.48 | 0 | 4547
2 | 1:00.48 | 3:13.14 | 4548 | 19036
3 | 4:13.62 | 0:51.15 | 19037 | 22876
4 | 5:05.02 | 2:25.73 | 22877 | 33824
5 | 7:31.00 | 1:21.52 | 33825 | 39951
6 | 8:52.52 | 6:51.08 | 39952 | 70784
7 | 15:43.60 | 4:28.23 | 70785 | 90907
8 | 20:12.08 | 1:15.17 | 90908 | 96549
9 | 21:27.25 | 1:55.37 | 96550 | 105211
10 | 23:22.62 | 0:36.20 | 105212 | 107931
11 | 23:59.07 | 1:01.58 | 107932 | 112564
12 | 25:00.65 | 5:00.60 | 112565 | 135124
13 | 30:01.50 | 0:28.15 | 135125 | 137239
14 | 30:29.65 | 0:49.35 | 137240 | 140949
15 | 31:19.25 | 2:35.01 | 140950 | 152575
16 | 33:54.26 | 1:09.56 | 152576 | 157806
17 | 35:04.07 | 4:04.28 | 157807 | 176134
18 | 39:08.35 | 0:56.60 | 176135 | 180394
19 | 40:05.20 | 4:06.55 | 180395 | 198899
20 | 44:12.00 | 0:48.07 | 198900 | 202506
21 | 45:00.07 | 3:20.13 | 202507 | 217519
22 | 48:20.20 | 1:17.17 | 217520 | 223311
23 | 49:37.37 | 2:53.25 | 223312 | 236311
24 | 52:30.62 | 0:48.00 | 236312 | 239911
25 | 53:18.62 | 1:38.23 | 239912 | 247284


Range status and errors

Selected range

Filename C:\ArlegZ\Handel - Agrippina, Armida, La Lucrezia - Eva Mei.wav

Peak level 99.5 %
Extraction speed 1.8 X
Range quality 100.0 %
Test CRC 839A1ED4
Copy CRC 839A1ED4
Copy OK

No errors occurred


AccurateRip summary

Track 1 accurately ripped (confidence 1) [DD6D3F8A] (AR v2)
Track 2 accurately ripped (confidence 1) [AA065A0E] (AR v2)
Track 3 accurately ripped (confidence 1) [A74D02BF] (AR v2)
Track 4 accurately ripped (confidence 1) [AEC8E30E] (AR v2)
Track 5 accurately ripped (confidence 1) [E4A79580] (AR v2)
Track 6 accurately ripped (confidence 1) [25451632] (AR v2)
Track 7 accurately ripped (confidence 1) [9E092227] (AR v2)
Track 8 accurately ripped (confidence 1) [695C77A7] (AR v2)
Track 9 accurately ripped (confidence 1) [E89F05F3] (AR v2)
Track 10 accurately ripped (confidence 1) [1C986320] (AR v2)
Track 11 accurately ripped (confidence 1) [29DB8E21] (AR v2)
Track 12 accurately ripped (confidence 1) [5ED07585] (AR v2)
Track 13 accurately ripped (confidence 1) [0D2B0B05] (AR v2)
Track 14 accurately ripped (confidence 1) [CC75F205] (AR v2)
Track 15 accurately ripped (confidence 1) [DBE8FCC1] (AR v2)
Track 16 accurately ripped (confidence 1) [9E1716DF] (AR v2)
Track 17 accurately ripped (confidence 1) [735A025F] (AR v2)
Track 18 accurately ripped (confidence 1) [EF5C572E] (AR v2)
Track 19 accurately ripped (confidence 1) [B48B7078] (AR v2)
Track 20 accurately ripped (confidence 1) [A705ED93] (AR v2)
Track 21 accurately ripped (confidence 1) [14CA1A73] (AR v2)
Track 22 accurately ripped (confidence 1) [C068021F] (AR v2)
Track 23 accurately ripped (confidence 1) [FBF30D68] (AR v2)
Track 24 accurately ripped (confidence 1) [43F4035F] (AR v2)
Track 25 accurately ripped (confidence 1) [258D9765] (AR v2)

All tracks accurately ripped

End of status report

–– CUETools DB Plugin V2.1.6

[CTDB TOCID: kYyCu5byxwcFNImySxEc7tEXeQI-] found
Submit result: kYyCu5byxwcFNImySxEc7tEXeQI- has been confirmed
Track | CTDB Status
1 | (9/9) Accurately ripped
2 | (9/9) Accurately ripped
3 | (9/9) Accurately ripped
4 | (9/9) Accurately ripped
5 | (9/9) Accurately ripped
6 | (9/9) Accurately ripped
7 | (9/9) Accurately ripped
8 | (9/9) Accurately ripped
9 | (9/9) Accurately ripped
10 | (9/9) Accurately ripped
11 | (9/9) Accurately ripped
12 | (9/9) Accurately ripped
13 | (9/9) Accurately ripped
14 | (9/9) Accurately ripped
15 | (9/9) Accurately ripped
16 | (9/9) Accurately ripped
17 | (9/9) Accurately ripped
18 | (9/9) Accurately ripped
19 | (9/9) Accurately ripped
20 | (9/9) Accurately ripped
21 | (9/9) Accurately ripped
22 | (9/9) Accurately ripped
23 | (9/9) Accurately ripped
24 | (9/9) Accurately ripped
25 | (9/9) Accurately ripped


==== Log checksum 74C3D09005BABF1B61EE13D4E0F7DE1A54A70D7C34716B0AA2FD0B9483860279 ====


William Christie, Les Arts Florissants, Giovanni Antonini, Eva Mei - Handel: Acis and Galatea, Theodora, Solo Cantatas (2008)