Tags
Language
Tags

Hank Jones - I Remember You (1977) [Reissue 2000]

Posted By: gribovar
Hank Jones - I Remember You (1977) [Reissue 2000]

Hank Jones - I Remember You (1977) [Reissue 2000]
EAC Rip | FLAC (image+.cue+log) - 374 MB | MP3 CBR 320 kbps (LAME 3.93) - 173 MB | Covers - 52 MB
Genre: Jazz, Bop | RAR 3% Rec. | Label: Black & Blue (BB 947.2)

Made for the French Black & Blue label and released in the U.S. on a Classic Jazz LP, this outing features pianist Hank Jones emphasizing the swing side of his flexible musical personality. Teamed up with bassist George Duvivier and drummer Oliver Jackson, Jones adds beauty and melodic ideas to such veteran numbers as "You Took Advantage of Me," "Love Walked In," "Like Someone In Love" and (easily the most recent tune) Bobby Timmons' "Dat Dere."
Tracklist:
01. I Remember You
02. Young No More
03. You Took Advantage Of Me
04. Love Walked In
05. Dat Dere
06. I'll Be Around
07. Let's Fall In Love
08. Like Someone In Love
09. Theme For Jobim
10. It's The Talk Of The Town
11. I Remember You
12. Young No More
13. Love Walked In
14. Like Someone In Love

Total time: 01:13:42

Exact Audio Copy V1.0 beta 3 from 29. August 2011

EAC extraction logfile from 13. July 2012, 18:42

Hank Jones / I Remember You

Used drive : HL-DT-STDVDRAM GT20N Adapter: 0 ID: 0

Read mode : Secure
Utilize accurate stream : Yes
Defeat audio cache : Yes
Make use of C2 pointers : No

Read offset correction : 667
Overread into Lead-In and Lead-Out : No
Fill up missing offset samples with silence : Yes
Delete leading and trailing silent blocks : No
Null samples used in CRC calculations : Yes
Used interface : Installed external ASPI interface

Used output format : Internal WAV Routines
Sample format : 44.100 Hz; 16 Bit; Stereo


TOC of the extracted CD

Track | Start | Length | Start sector | End sector
––––––––––––––––––––––––––––-
1 | 0:00.00 | 6:04.30 | 0 | 27329
2 | 6:04.30 | 5:54.70 | 27330 | 53949
3 | 11:59.25 | 3:15.15 | 53950 | 68589
4 | 15:14.40 | 4:59.66 | 68590 | 91080
5 | 20:14.31 | 7:28.63 | 91081 | 124743
6 | 27:43.19 | 4:49.47 | 124744 | 146465
7 | 32:32.66 | 2:47.02 | 146466 | 158992
8 | 35:19.68 | 5:23.73 | 158993 | 183290
9 | 40:43.66 | 7:30.08 | 183291 | 217048
10 | 48:13.74 | 3:16.71 | 217049 | 231819
11 | 51:30.70 | 6:11.49 | 231820 | 259693
12 | 57:42.44 | 5:25.27 | 259694 | 284095
13 | 63:07.71 | 5:09.13 | 284096 | 307283
14 | 68:17.09 | 5:24.31 | 307284 | 331614


Range status and errors

Selected range

Filename E:\EAC\Hank Jones - I Remember You.wav

Peak level 100.0 %
Extraction speed 4.3 X
Range quality 100.0 %
Test CRC 27844681
Copy CRC 27844681
Copy OK

No errors occurred


AccurateRip summary

Track 1 not present in database
Track 2 not present in database
Track 3 not present in database
Track 4 not present in database
Track 5 not present in database
Track 6 not present in database
Track 7 not present in database
Track 8 not present in database
Track 9 not present in database
Track 10 not present in database
Track 11 not present in database
Track 12 not present in database
Track 13 not present in database
Track 14 not present in database

None of the tracks are present in the AccurateRip database

End of status report

==== Log checksum 20BE36E5C34BC8C9C2B86F71DB8D596C450D481C98A0619EA8F23296BA87EA1D ====

[CUETools log; Date: 17.01.2022 17:53:35; Version: 2.1.4]
[CTDB TOCID: uRAF7EkeH1XRKTnqpNJfD.BwYy0-] found.
Track | CTDB Status
1 | (6/6) Accurately ripped
2 | (6/6) Accurately ripped
3 | (6/6) Accurately ripped
4 | (6/6) Accurately ripped
5 | (6/6) Accurately ripped
6 | (6/6) Accurately ripped
7 | (6/6) Accurately ripped
8 | (6/6) Accurately ripped
9 | (6/6) Accurately ripped
10 | (6/6) Accurately ripped
11 | (6/6) Accurately ripped
12 | (6/6) Accurately ripped
13 | (6/6) Accurately ripped
14 | (6/6) Accurately ripped
[AccurateRip ID: 0025eef3-01938fec-d711450e] found.
Track [ CRC | V2 ] Status
01 [4db3eb58|e96b30dc] (0+3/3) Accurately ripped
02 [84c8a2b6|4597431c] (0+3/3) Accurately ripped
03 [6a084499|05513b7f] (0+3/3) Accurately ripped
04 [2be0bd46|06fc0702] (0+3/3) Accurately ripped
05 [79b40e4e|cd89c123] (0+3/3) Accurately ripped
06 [f2bb3bc4|9880c43e] (0+3/3) Accurately ripped
07 [781175ea|c0a9f354] (0+3/3) Accurately ripped
08 [29984aac|e6d9416b] (0+3/3) Accurately ripped
09 [f34a5dc1|7420b777] (0+3/3) Accurately ripped
10 [67abef96|d2f3767f] (0+3/3) Accurately ripped
11 [8531c04e|f36f9bb7] (0+3/3) Accurately ripped
12 [c7815336|1300b4d3] (0+3/3) Accurately ripped
13 [fe94efc4|bfbdb2df] (0+3/3) Accurately ripped
14 [a081c843|87b1e6db] (0+3/3) Accurately ripped

Track Peak [ CRC32 ] [W/O NULL] [ LOG ]
– 100,0 [27844681] [27D8E4E4] CRC32
01 94,8 [F79C5B3C] [C0D1AD1D]
02 100,0 [D6517595] [47978B68]
03 100,0 [C944B8D0] [904480F6]
04 100,0 [65654466] [245F9F3E]
05 100,0 [0FB92692] [E1752B63]
06 100,0 [82A74599] [7E837F00]
07 100,0 [13B31030] [5F0A0945]
08 100,0 [6300DB4F] [69D47840]
09 90,5 [821F5451] [F17C28D8]
10 100,0 [0AC4FCD7] [1B5849EF]
11 100,0 [595BB354] [DE5FD496]
12 100,0 [6441098F] [9377A1B4]
13 100,0 [29011E65] [5A292B58]
14 100,0 [86F80648] [42C8918A]

Thanks to ffsf

See also: