Tags
Language
Tags

Hans-Christoph Rademann, Dresdner Barockorchester, Dresdner Kammerchor - Heinichen: Missa Nr. 11; Handel: Dixit Dominus (2002)

Posted By: ArlegZ
Hans-Christoph Rademann, Dresdner Barockorchester, Dresdner Kammerchor - Heinichen: Missa Nr. 11; Handel: Dixit Dominus (2002)

Hans-Christoph Rademann, Dresdner Barockorchester, Dresdner Kammerchor - Heinichen: Missa Nr. 11; Handel: Dixit Dominus (2002)
EAC | FLAC | Image (Cue & Log) ~ 286 Mb | Total time: 63:57 | Scans included
Classical | Label: Carus | # 83.149 | Recorded: 2000

The music of the Court of Dresden is of special interest to Hans-Christoph Rademann and his two Dresden ensembles. Johann David Heinichen’s Missa No.11 is presented in a manner in which the musicians can display the entire majestic sound of this festive court music from the baroque era.

Performer:
Christine Wolff, Sopran
Susanne Scheinpflug, Sopran
Patrick van Goethem, Altus
Uwe Stickert, Tenor
Jochen Kupfer, Bass
Dresdner Kammerchor
Dresdner Barockorchester
Hans-Christoph Rademann, conductor

Track List:
Johann David Heinichen (1683-1729)
Missa No. 11 in D major for chorus, orchestra & continuo
01. Kyrie
02. Gloria in excelsis
03. Qui tollis
04. Quoniam
05. Cum Sancto Spiritu
06. Credo
07. Et resurrexit
08. Et in Spiritum Sanctum
09. Et vitam
10. Sanctus
11. Pleni sunt coeli
12. Benedictus
13. Osanna in excelsis
14. Agnus Dei 1
15. Agnus Dei 2
16. Agnus Dei 3
George Frederick Handel (1685-1759)
Dixit Dominus, hymn for soloists, chorus & orchestra in G minor, HWV 232
17. Dixit Dominus
18. Virgam virtutis
19. Tecum principium
20. Juravit Dominus
21. Tu es sacerdos
22. Dominus a dextris
23. De torrente in via
24. Gloria patri


Exact Audio Copy V1.5 from 20. February 2020

EAC extraction logfile from 4. March 2021, 21:14

Christine Wolff, Susanne Scheinpflug, Patrick van Goethem, Uwe Stickert, Jochen Kupfer / Heinichen - Missa Nr. 11 & Handel - Dixit Dominus

Used drive : ATAPI iHAS124 F Adapter: 1 ID: 0

Read mode : Secure
Utilize accurate stream : Yes
Defeat audio cache : Yes
Make use of C2 pointers : No

Read offset correction : 6
Overread into Lead-In and Lead-Out : No
Fill up missing offset samples with silence : Yes
Delete leading and trailing silent blocks : No
Null samples used in CRC calculations : Yes
Used interface : Native Win32 interface for Win NT & 2000

Used output format : User Defined Encoder
Selected bitrate : 1024 kBit/s
Quality : High
Add ID3 tag : No
Command line compressor : C:\Program Files (x86)\Exact Audio Copy\FLAC\FLAC.EXE
Additional command line options : -6 -V -T "ARTIST=%artist%" -T "TITLE=%title%" -T "ALBUM=%albumtitle%" -T "DATE=%year%" -T "TRACKNUMBER=%tracknr%" -T "GENRE=%genre%" -T "COMMENT=%comment%" -T "BAND=%albuminterpret%" -T "ALBUMARTIST=%albuminterpret%" -T "COMPOSER=%composer%" %haslyrics%–tag-from-file=LYRICS="%lyricsfile%"%haslyrics% -T "DISCNUMBER=%cdnumber%" -T "TOTALDISCS=%totalcds%" -T "TOTALTRACKS=%numtracks%" %hascover%–picture="%coverfile%"%hascover% %source% -o %dest%


TOC of the extracted CD

Track | Start | Length | Start sector | End sector
––––––––––––––––––––––––––––-
1 | 0:00.00 | 3:07.30 | 0 | 14054
2 | 3:07.30 | 1:58.10 | 14055 | 22914
3 | 5:05.40 | 2:24.25 | 22915 | 33739
4 | 7:29.65 | 1:37.60 | 33740 | 41074
5 | 9:07.50 | 1:53.00 | 41075 | 49549
6 | 11:00.50 | 3:43.60 | 49550 | 66334
7 | 14:44.35 | 1:17.05 | 66335 | 72114
8 | 16:01.40 | 2:40.57 | 72115 | 84171
9 | 18:42.22 | 1:25.03 | 84172 | 90549
10 | 20:07.25 | 0:54.55 | 90550 | 94654
11 | 21:02.05 | 1:09.02 | 94655 | 99831
12 | 22:11.07 | 1:45.60 | 99832 | 107766
13 | 23:56.67 | 1:29.18 | 107767 | 114459
14 | 25:26.10 | 1:34.32 | 114460 | 121541
15 | 27:00.42 | 2:22.23 | 121542 | 132214
16 | 29:22.65 | 2:10.57 | 132215 | 142021
17 | 31:33.47 | 5:50.18 | 142022 | 168289
18 | 37:23.65 | 2:54.72 | 168290 | 181411
19 | 40:18.62 | 2:52.23 | 181412 | 194334
20 | 43:11.10 | 2:23.02 | 194335 | 205061
21 | 45:34.12 | 1:31.15 | 205062 | 211901
22 | 47:05.27 | 7:09.08 | 211902 | 244084
23 | 54:14.35 | 3:27.25 | 244085 | 259634
24 | 57:41.60 | 6:13.00 | 259635 | 287609


Range status and errors

Selected range

Filename C:\EACRip\VARIOUS\Heinichen - Missa Nr. 11 & Handel - Dixit Dominus (Hans-Christoph Rademann) (2002)\Heinichen - Missa Nr. 11 & Handel - Dixit Dominus - Hans-Christoph Rademann.wav

Peak level 88.9 %
Extraction speed 8.9 X
Range quality 100.0 %
Test CRC 2D7830A5
Copy CRC 2D7830A5
Copy OK

No errors occurred


AccurateRip summary

Track 1 accurately ripped (confidence 8) [70A06090] (AR v2)
Track 2 accurately ripped (confidence 9) [7D855FB2] (AR v2)
Track 3 accurately ripped (confidence 9) [43BF4039] (AR v2)
Track 4 accurately ripped (confidence 9) [37627016] (AR v2)
Track 5 accurately ripped (confidence 9) [ACD409CA] (AR v2)
Track 6 accurately ripped (confidence 9) [6DCCBCF8] (AR v2)
Track 7 accurately ripped (confidence 9) [DFDCFA66] (AR v2)
Track 8 accurately ripped (confidence 9) [020BC5F3] (AR v2)
Track 9 accurately ripped (confidence 9) [EC5FDA92] (AR v2)
Track 10 accurately ripped (confidence 9) [20A92ADD] (AR v2)
Track 11 accurately ripped (confidence 9) [FA8D6981] (AR v2)
Track 12 accurately ripped (confidence 9) [15F36445] (AR v2)
Track 13 accurately ripped (confidence 9) [5F84C103] (AR v2)
Track 14 accurately ripped (confidence 9) [F4A8118F] (AR v2)
Track 15 accurately ripped (confidence 9) [C0AA4C42] (AR v2)
Track 16 accurately ripped (confidence 9) [B3B65F20] (AR v2)
Track 17 accurately ripped (confidence 9) [87507714] (AR v2)
Track 18 accurately ripped (confidence 9) [E192A54F] (AR v2)
Track 19 accurately ripped (confidence 9) [B3E9757D] (AR v2)
Track 20 accurately ripped (confidence 9) [0B91F8C1] (AR v2)
Track 21 accurately ripped (confidence 9) [F7B30F7B] (AR v2)
Track 22 accurately ripped (confidence 9) [A0C859FB] (AR v2)
Track 23 accurately ripped (confidence 9) [CF4726A3] (AR v2)
Track 24 accurately ripped (confidence 9) [48F302F6] (AR v2)

All tracks accurately ripped

End of status report

–– CUETools DB Plugin V2.1.6

[CTDB TOCID: paWH6PxPuyPd3ZgUGq0LwikRebk-] found
Submit result: paWH6PxPuyPd3ZgUGq0LwikRebk- has been confirmed
Track | CTDB Status
1 | (9/9) Accurately ripped
2 | (9/9) Accurately ripped
3 | (9/9) Accurately ripped
4 | (9/9) Accurately ripped
5 | (9/9) Accurately ripped
6 | (9/9) Accurately ripped
7 | (9/9) Accurately ripped
8 | (9/9) Accurately ripped
9 | (9/9) Accurately ripped
10 | (9/9) Accurately ripped
11 | (9/9) Accurately ripped
12 | (9/9) Accurately ripped
13 | (9/9) Accurately ripped
14 | (9/9) Accurately ripped
15 | (9/9) Accurately ripped
16 | (9/9) Accurately ripped
17 | (9/9) Accurately ripped
18 | (9/9) Accurately ripped
19 | (9/9) Accurately ripped
20 | (9/9) Accurately ripped
21 | (9/9) Accurately ripped
22 | (9/9) Accurately ripped
23 | (9/9) Accurately ripped
24 | (9/9) Accurately ripped


==== Log checksum B9224BE4F8E2E743CB56C3725D7919BD610FE9EC3A2539A6B0F5416E78497ADD ====

Hans-Christoph Rademann, Dresdner Barockorchester, Dresdner Kammerchor - Heinichen: Missa Nr. 11; Handel: Dixit Dominus (2002)

Thanks to the original releaser