Tags
Language
Tags

Hans-Christoph Rademann, Dresdner Kammerchor - Schein: Israelsbrünnlein (2012)

Posted By: ArlegZ
Hans-Christoph Rademann, Dresdner Kammerchor - Schein: Israelsbrünnlein (2012)

Hans-Christoph Rademann, Dresdner Kammerchor - Schein: Israelsbrünnlein (2012)
EAC | FLAC | Image (Cue & Log) ~ 389 Mb | Total time: 94:32 | Scans included
Classical | Label: Carus | 83.350 | Recorded: 2000

Scheins 1623 in Leipzig gedruckte Sammlung Israelsbrünnlein ist eine kompositorische Gipfelleistung, nicht nur innerhalb des Schaffens des seit 1616 in Leipzig als Thomaskantor wirkenden Komponisten, sondern darüber hinaus auch der deutschen Musik der ersten Hälfte des 17. Jahrhunderts. Unter den 26 "auf Italian-Madrigalische Manir" geschriebenen Motetten finden sich 23 auf alttestamentarische Texte (Psalmen, die Mose-Bücher, das Hohelied und andere Bücher des Alten Testaments) komponierte, was der Sammlung den Namen gab. Hans-Christoph Rademann und der Dresdner Kammerchor legen hier eine Referenzeinspielung der kompletten Sammlung vor.

Performer:
Dresdner Kammerchor
Hans-Christoph Rademann

Track List:
CD1:
01. O Herr, ich bin dein Knecht
02. Freue dich des Weibes deiner Jugend
03. Die mit Tränen säen
04. Ich lasse dich nicht
05. Dennoch bleibe ich stets an dir
06. Wende dich, Herr, und sei mir gnädig
07. Zion spricht: Der Herr hat mich verlassen
08. Ich bin jung gewesen
09. Der Herr denket an uns
10. Da Jakob vollendet hatte
11. Lieblich und schön sein ist nichts
12. Ist nicht Ephraim mein teuer Sohn
13. Siehe an die Werk Gottes
CD2:
01. Ich freue mich im Herren
02. Unser Leben währet siebnzig Jahr
03. Ihr Heiligen, lobsinget dem Herren
04. Herr, lass meine Klage für dich kommen
05. Siehe, nach Trost war mir sehr bange
06. Ach Herr, ach meiner schone
07. Drei schöne Ding sind
08. Was betrübst du dich, meine Seele
09. Wem ein tugendsam Weib bescheret ist
10. O, Herr Jesu Christe
11. Ich bin die Wurzel des Geschlechtes David
12. Lehre uns bedenken
13. Nu danket alle Gott


Exact Audio Copy V1.1 from 23. June 2015

EAC extraction logfile from 5. July 2017, 17:08

Dresdner Kammerchor, Hans-Christoph Rademann / Schein - Israelsbrünnlein

Used drive : HL-DT-STDVDRAM GSA-4040B Adapter: 1 ID: 2

Read mode : Secure
Utilize accurate stream : Yes
Defeat audio cache : Yes
Make use of C2 pointers : No

Read offset correction : 667
Overread into Lead-In and Lead-Out : No
Fill up missing offset samples with silence : Yes
Delete leading and trailing silent blocks : No
Null samples used in CRC calculations : Yes
Used interface : Native Win32 interface for Win NT & 2000

Used output format : User Defined Encoder
Selected bitrate : 896 kBit/s
Quality : High
Add ID3 tag : No
Command line compressor : F:\Program Files\Exact Audio Copy\Flac\flac.exe
Additional command line options : -8 -V -T "ARTIST=%artist%" -T "TITLE=%title%" -T "ALBUM=%albumtitle%" -T "DATE=%year%" -T "TRACKNUMBER=%tracknr%" -T "GENRE=%genre%" -T "PERFORMER=%albuminterpret%" -T "COMPOSER=%composer%" %haslyrics%–tag-from-file=LYRICS="%lyricsfile%"%haslyrics% -T "ALBUMARTIST=%albumartist%" -T "DISCNUMBER=%cdnumber%" -T "TOTALDISCS=%totalcds%" -T "TOTALTRACKS=%numtracks%" -T "COMMENT=%comment%" %source% -o %dest%


TOC of the extracted CD

Track | Start | Length | Start sector | End sector
––––––––––––––––––––––––––––-
1 | 0:00.00 | 2:59.09 | 0 | 13433
2 | 2:59.09 | 3:46.44 | 13434 | 30427
3 | 6:45.53 | 3:26.34 | 30428 | 45911
4 | 10:12.12 | 2:55.00 | 45912 | 59036
5 | 13:07.12 | 3:11.66 | 59037 | 73427
6 | 16:19.03 | 3:42.50 | 73428 | 90127
7 | 20:01.53 | 4:40.64 | 90128 | 111191
8 | 24:42.42 | 3:02.41 | 111192 | 124882
9 | 27:45.08 | 3:42.42 | 124883 | 141574
10 | 31:27.50 | 4:43.39 | 141575 | 162838
11 | 36:11.14 | 3:36.56 | 162839 | 179094
12 | 39:47.70 | 4:01.47 | 179095 | 197216
13 | 43:49.42 | 3:16.02 | 197217 | 211918


Range status and errors

Selected range

Filename Q:\Music\Carus83350\cd1\Dresdner Kammerchor, Hans-Christoph Rademann - Schein - Israelsbrünnlein.wav

Peak level 91.3 %
Extraction speed 4.3 X
Range quality 100.0 %
Test CRC 9CD03C83
Copy CRC 9CD03C83
Copy OK

No errors occurred


AccurateRip summary

Track 1 accurately ripped (confidence 3) [30F16F30] (AR v2)
Track 2 accurately ripped (confidence 3) [303E54A7] (AR v2)
Track 3 accurately ripped (confidence 3) [2D87B602] (AR v2)
Track 4 accurately ripped (confidence 3) [11D5A0B2] (AR v2)
Track 5 accurately ripped (confidence 3) [78B5C0CA] (AR v2)
Track 6 accurately ripped (confidence 3) [63713AF8] (AR v2)
Track 7 accurately ripped (confidence 3) [D6535B0E] (AR v2)
Track 8 accurately ripped (confidence 3) [59833AB6] (AR v2)
Track 9 accurately ripped (confidence 3) [14FFEB42] (AR v2)
Track 10 accurately ripped (confidence 3) [20E9616E] (AR v2)
Track 11 accurately ripped (confidence 3) [A60823BF] (AR v2)
Track 12 accurately ripped (confidence 3) [F607F5EF] (AR v2)
Track 13 accurately ripped (confidence 3) [6BE9896C] (AR v2)

All tracks accurately ripped

End of status report

–– CUETools DB Plugin V2.1.6

[CTDB TOCID: c8Qve5Z0D8r7et0Iba9XedjgyWs-] found
Submit result: c8Qve5Z0D8r7et0Iba9XedjgyWs- has been confirmed
Track | CTDB Status
1 | (3/3) Accurately ripped
2 | (3/3) Accurately ripped
3 | (3/3) Accurately ripped
4 | (3/3) Accurately ripped
5 | (3/3) Accurately ripped
6 | (3/3) Accurately ripped
7 | (3/3) Accurately ripped
8 | (3/3) Accurately ripped
9 | (3/3) Accurately ripped
10 | (3/3) Accurately ripped
11 | (3/3) Accurately ripped
12 | (3/3) Accurately ripped
13 | (2/3) Accurately ripped


==== Log checksum C2DAF6BCAE49E08F5E069881E007EF74430611EBBCE35BB6FC3C613D71C56ED8 ====


Exact Audio Copy V1.1 from 23. June 2015

EAC extraction logfile from 5. July 2017, 18:33

Dresdner Kammerchor, Hans-Christoph Rademann / Schein - Israelsbrünnlein

Used drive : HL-DT-STDVDRAM GSA-4040B Adapter: 1 ID: 2

Read mode : Secure
Utilize accurate stream : Yes
Defeat audio cache : Yes
Make use of C2 pointers : No

Read offset correction : 667
Overread into Lead-In and Lead-Out : No
Fill up missing offset samples with silence : Yes
Delete leading and trailing silent blocks : No
Null samples used in CRC calculations : Yes
Used interface : Native Win32 interface for Win NT & 2000

Used output format : User Defined Encoder
Selected bitrate : 896 kBit/s
Quality : High
Add ID3 tag : No
Command line compressor : F:\Program Files\Exact Audio Copy\Flac\flac.exe
Additional command line options : -8 -V -T "ARTIST=%artist%" -T "TITLE=%title%" -T "ALBUM=%albumtitle%" -T "DATE=%year%" -T "TRACKNUMBER=%tracknr%" -T "GENRE=%genre%" -T "PERFORMER=%albuminterpret%" -T "COMPOSER=%composer%" %haslyrics%–tag-from-file=LYRICS="%lyricsfile%"%haslyrics% -T "ALBUMARTIST=%albumartist%" -T "DISCNUMBER=%cdnumber%" -T "TOTALDISCS=%totalcds%" -T "TOTALTRACKS=%numtracks%" -T "COMMENT=%comment%" %source% -o %dest%


TOC of the extracted CD

Track | Start | Length | Start sector | End sector
––––––––––––––––––––––––––––-
1 | 0:00.00 | 2:46.51 | 0 | 12500
2 | 2:46.51 | 3:29.31 | 12501 | 28206
3 | 6:16.07 | 3:41.44 | 28207 | 44825
4 | 9:57.51 | 3:04.58 | 44826 | 58683
5 | 13:02.34 | 3:58.54 | 58684 | 76587
6 | 17:01.13 | 2:53.06 | 76588 | 89568
7 | 19:54.19 | 3:49.63 | 89569 | 106806
8 | 23:44.07 | 4:52.66 | 106807 | 128772
9 | 28:36.73 | 3:31.19 | 128773 | 144616
10 | 32:08.17 | 3:57.14 | 144617 | 162405
11 | 36:05.31 | 3:42.35 | 162406 | 179090
12 | 39:47.66 | 3:40.11 | 179091 | 195601
13 | 43:28.02 | 3:56.02 | 195602 | 213303


Range status and errors

Selected range

Filename Q:\Music\Carus83350\cd2\Dresdner Kammerchor, Hans-Christoph Rademann - Schein - Israelsbrünnlein.wav

Peak level 78.7 %
Extraction speed 4.3 X
Range quality 100.0 %
Test CRC 043BC7BB
Copy CRC 043BC7BB
Copy OK

No errors occurred


AccurateRip summary

Track 1 accurately ripped (confidence 2) [5BC08C28] (AR v2)
Track 2 accurately ripped (confidence 2) [89904119] (AR v2)
Track 3 accurately ripped (confidence 2) [A7C7CB99] (AR v2)
Track 4 accurately ripped (confidence 2) [35C823E4] (AR v2)
Track 5 accurately ripped (confidence 2) [410201E9] (AR v2)
Track 6 accurately ripped (confidence 2) [F4A77148] (AR v2)
Track 7 accurately ripped (confidence 2) [923A3188] (AR v2)
Track 8 accurately ripped (confidence 2) [2FF9FB39] (AR v2)
Track 9 accurately ripped (confidence 2) [8E7BCD01] (AR v2)
Track 10 accurately ripped (confidence 2) [4857831C] (AR v2)
Track 11 accurately ripped (confidence 2) [3F55D22B] (AR v2)
Track 12 accurately ripped (confidence 2) [BFCA471F] (AR v2)
Track 13 accurately ripped (confidence 2) [61873796] (AR v2)

All tracks accurately ripped

End of status report

–– CUETools DB Plugin V2.1.6

[CTDB TOCID: XY8yt0xRx42Hyzq5bW03zn.2Tp4-] found
Submit result: XY8yt0xRx42Hyzq5bW03zn.2Tp4- has been confirmed
Track | CTDB Status
1 | (3/3) Accurately ripped
2 | (3/3) Accurately ripped
3 | (3/3) Accurately ripped
4 | (3/3) Accurately ripped
5 | (3/3) Accurately ripped
6 | (3/3) Accurately ripped
7 | (3/3) Accurately ripped
8 | (3/3) Accurately ripped
9 | (3/3) Accurately ripped
10 | (3/3) Accurately ripped
11 | (3/3) Accurately ripped
12 | (3/3) Accurately ripped
13 | (2/3) Accurately ripped


==== Log checksum 16CA2D740C38F5C3535BD94C589104A3D52246DEF217639B6A7DAA499F466DEA ====

Hans-Christoph Rademann, Dresdner Kammerchor - Schein: Israelsbrünnlein (2012)

Thanks to the original releaser