Tags
Language
Tags

Hans-Christoph Rademann, Dresdner Barockorchester, Dresdner Kammerchor - Johann Adolf Hasse: Requiem, Miserere (2005)

Posted By:
Hans-Christoph Rademann, Dresdner Barockorchester, Dresdner Kammerchor - Johann Adolf Hasse: Requiem, Miserere (2005)

Hans-Christoph Rademann, Dresdner Barockorchester, Dresdner Kammerchor - Johann Adolf Hasse: Requiem, Miserere (2005)
EAC | FLAC | Image (Cue & Log) ~ 321 Mb | Total time: 65:04 | Scans included
Classical | Label: Carus | # 83.175 | Recorded: 2005

The two Johann Adolf Hasse compositions recorded here are proof of the both high quality of his music and the broad range of styles which he had at his disposal. Once again Hans-Christoph Rademann offers an exemplary interpretation of music from the Court of Dresden, to which he has often dedicated his musical efforts.
“Under the direction of Hans-Christoph Rademann the Dresdner Barockorchester and the superb Chamber Choir bring a homogeneous, lean performance which follows integrally the gesture of the text and provides many moving moments. Thus with its penetrating tone language this live recording brings to life two unjustly forgotten masterworks of the 18th century.”

Performer:
Simona Houda-Šaturová, soprano
Britta Schwarz, alto
Eric Stokloßa, tenore
Gotthold Schwarz, basso
Dresdner Kammerchor
Dresdner Barockorchester
Conductor - Hans-Christoph Rademann

Track List:
Requiem in Es-dur
01. Requiem aeternam (Solo S, Coro)
02. Te decet hymnus (Coro TB) - Exaudi (Solo T)
03. Kyrie eleison I (Coro)
04. Christe eleison (Duetto SA)
05. Kyrie eleison II (Coro)
06. Dies irae (Soli SSATTB, Coro)
07. Recordare (Solo S)
08. Ingemisco (Coro)
09. Qui Mariam absolvisti (Solo A)
10. Inter oves (Duetto TT)
11. Oro supplex (Coro)
12. Lacrimosa (Solo A)
13. Huic ergo (Coro)
14. Dona eis requiem (Coro)
15. Sanctus - Osanna I (Coro)
16. Benedictus (Duetto AA)
17. Osanna II (Coro)
18. Agnus Dei (Solo S)
19. Lux aeterna (Coro TB)
20. Requiem aeternam (da capo)
Miserere in d-moll
21. Miserere (Coro)
22. Tibi soli peccavi (Solo S)
23. Ecce enim (Soli SSAA, Coro)
24. Quoniam si voluisses (Solo A)
25. Benigne fac, Domine (Solo S)
26. Tunc acceptabis (Soli SA, Coro)


Exact Audio Copy V1.6 from 23. October 2020

EAC extraction logfile from 5. June 2021, 13:10

Hans-Christoph Rademann, Dresdner Barockorchester, Dresdner Kammerchor / Hasse - Requiem & Miserere

Used drive : PIONEER DVD-RW DVR-218L Adapter: 1 ID: 0

Read mode : Secure
Utilize accurate stream : Yes
Defeat audio cache : Yes
Make use of C2 pointers : No

Read offset correction : 6
Overread into Lead-In and Lead-Out : No
Fill up missing offset samples with silence : Yes
Delete leading and trailing silent blocks : No
Null samples used in CRC calculations : Yes
Used interface : Native Win32 interface for Win NT & 2000

Used output format : User Defined Encoder
Selected bitrate : 128 kBit/s
Quality : High
Add ID3 tag : No
Command line compressor : C:\Program Files\Exact Audio Copy\Flac\flac.exe
Additional command line options : -V -8 -T "Date=%year%" -T "Genre=%genre%" %source%


TOC of the extracted CD

Track | Start | Length | Start sector | End sector
––––––––––––––––––––––––––––-
1 | 0:00.00 | 2:19.20 | 0 | 10444
2 | 2:19.20 | 3:51.53 | 10445 | 27822
3 | 6:10.73 | 1:08.42 | 27823 | 32964
4 | 7:19.40 | 2:53.57 | 32965 | 45996
5 | 10:13.22 | 0:52.18 | 45997 | 49914
6 | 11:05.40 | 4:40.09 | 49915 | 70923
7 | 15:45.49 | 3:12.08 | 70924 | 85331
8 | 18:57.57 | 0:48.38 | 85332 | 88969
9 | 19:46.20 | 2:39.18 | 88970 | 100912
10 | 22:25.38 | 2:44.05 | 100913 | 113217
11 | 25:09.43 | 0:42.16 | 113218 | 116383
12 | 25:51.59 | 3:24.29 | 116384 | 131712
13 | 29:16.13 | 0:25.45 | 131713 | 133632
14 | 29:41.58 | 2:16.68 | 133633 | 143900
15 | 31:58.51 | 1:30.42 | 143901 | 150692
16 | 33:29.18 | 1:53.74 | 150693 | 159241
17 | 35:23.17 | 0:46.52 | 159242 | 162743
18 | 36:09.69 | 3:25.32 | 162744 | 178150
19 | 39:35.26 | 0:34.22 | 178151 | 180722
20 | 40:09.48 | 2:31.42 | 180723 | 192089
21 | 42:41.15 | 4:16.67 | 192090 | 211356
22 | 46:58.07 | 2:44.32 | 211357 | 223688
23 | 49:42.39 | 6:28.39 | 223689 | 252827
24 | 56:11.03 | 2:51.29 | 252828 | 265681
25 | 59:02.32 | 3:02.31 | 265682 | 279362
26 | 62:04.63 | 3:12.45 | 279363 | 293807


Range status and errors

Selected range

Filename C:\ArlegZ\Hasse - Requiem & Miserere - Hans-Christoph Rademann.wav

Peak level 100.0 %
Extraction speed 2.0 X
Range quality 100.0 %
Test CRC 32F2B0F9
Copy CRC 32F2B0F9
Copy OK

No errors occurred


AccurateRip summary

Track 1 accurately ripped (confidence 16) [44F81F6C] (AR v2)
Track 2 accurately ripped (confidence 16) [F1AE98AB] (AR v2)
Track 3 accurately ripped (confidence 16) [77033FB4] (AR v2)
Track 4 accurately ripped (confidence 16) [C3E31D93] (AR v2)
Track 5 accurately ripped (confidence 16) [C6813E92] (AR v2)
Track 6 accurately ripped (confidence 16) [59F0A4BF] (AR v2)
Track 7 accurately ripped (confidence 16) [1ACFE321] (AR v2)
Track 8 accurately ripped (confidence 16) [65E994D7] (AR v2)
Track 9 accurately ripped (confidence 16) [B4078E02] (AR v2)
Track 10 accurately ripped (confidence 16) [AD9D197C] (AR v2)
Track 11 accurately ripped (confidence 16) [F8BFD919] (AR v2)
Track 12 accurately ripped (confidence 16) [B990EAB5] (AR v2)
Track 13 accurately ripped (confidence 16) [11F6B7EF] (AR v2)
Track 14 accurately ripped (confidence 16) [3D9FF787] (AR v2)
Track 15 accurately ripped (confidence 16) [D3C60BB3] (AR v2)
Track 16 accurately ripped (confidence 16) [EAFBE410] (AR v2)
Track 17 accurately ripped (confidence 16) [BA22C80F] (AR v2)
Track 18 accurately ripped (confidence 16) [E9E0A692] (AR v2)
Track 19 accurately ripped (confidence 16) [FB719864] (AR v2)
Track 20 accurately ripped (confidence 16) [EE433078] (AR v2)
Track 21 accurately ripped (confidence 16) [D2E4F826] (AR v2)
Track 22 accurately ripped (confidence 16) [2E952A81] (AR v2)
Track 23 accurately ripped (confidence 16) [06820BF0] (AR v2)
Track 24 accurately ripped (confidence 16) [DAD814C9] (AR v2)
Track 25 accurately ripped (confidence 16) [80C0B8CC] (AR v2)
Track 26 accurately ripped (confidence 16) [2B2BD7DA] (AR v2)

All tracks accurately ripped

End of status report

–– CUETools DB Plugin V2.1.6

[CTDB TOCID: _txBj9n51kFZ7m0eFB7SJETbJG0-] found
Submit result: _txBj9n51kFZ7m0eFB7SJETbJG0- has been confirmed
Track | CTDB Status
1 | (24/24) Accurately ripped
2 | (24/24) Accurately ripped
3 | (24/24) Accurately ripped
4 | (24/24) Accurately ripped
5 | (24/24) Accurately ripped
6 | (24/24) Accurately ripped
7 | (24/24) Accurately ripped
8 | (24/24) Accurately ripped
9 | (24/24) Accurately ripped
10 | (24/24) Accurately ripped
11 | (24/24) Accurately ripped
12 | (24/24) Accurately ripped
13 | (24/24) Accurately ripped
14 | (24/24) Accurately ripped
15 | (24/24) Accurately ripped
16 | (24/24) Accurately ripped
17 | (24/24) Accurately ripped
18 | (24/24) Accurately ripped
19 | (24/24) Accurately ripped
20 | (24/24) Accurately ripped
21 | (24/24) Accurately ripped
22 | (24/24) Accurately ripped
23 | (24/24) Accurately ripped
24 | (24/24) Accurately ripped
25 | (24/24) Accurately ripped
26 | (24/24) Accurately ripped


==== Log checksum 463518CD98F747B18829042C6A31D9BAF6E39296A3BAD1AD69D26BB8668CEFC9 ====

Hans-Christoph Rademann, Dresdner Barockorchester, Dresdner Kammerchor - Johann Adolf Hasse: Requiem, Miserere (2005)