Subcategories

Hans Fagius - Durufle: Veni Creator - The Complete Organ Music (2002)

Posted By: ArlegZ
Hans Fagius - Durufle: Veni Creator - The Complete Organ Music (2002)

Hans Fagius - Duruflé: Veni Creator - The Complete Organ Music (2002)
EAC | FLAC | Image (Cue & Log) ~ 253 Mb | Total time: 70:41 | Scans included
Classical | Label: BIS | # BIS-CD-1304 | Recorded: 2002

Listeners to his Requiem will recognise Duruflé's conservative and intensely personal musical language as heard in his organ music. The influence of Debussy, Dukas, Ravel, Tournemire and Vierne is evident, and like these composers Duruflé provides detailed performance indications.
Hans Fagius, a former student of Duruflé's, scrupulously observes all the scores' markings, and this is one reason why he's now the top recommendation for this repertoire. His performances have a flexible, seamless flow, and the playing has a slight understated quality which gives more clarity and impact than Eric Lebrun's flamboyant accounts. Fagius's interpretations are close in spirit to the recordings by the composer and his wife Marie-Madeleine Duruflé- Chevalier, and it's a shame that their authoritative performances are marred by poor sound quality. By contrast, BIS's recording of the 89- stop four-manual organ in Århus Cathedral is superbly realistic. The choice of this instrument was inspired; it has all the appropriate colours and it's set in a warm, generous acoustic. Another bonus is the inclusion of the sensuous and recently discovered Meditation. Although the recordings by Lebrun and the Duruflés are very good, they must now stand aside and let this BIS disc take the place of honour, for this is a truly distinguished release of one of the finest corpus of organ music you'll ever hear.
— Gramophone Classical Music Guide

Performer:
Hans Fagius, organ

Track List:
01. Fugue, Op. 12, sur le thème du Carillon des Heures de la Cathédrale de Soissons
Prélude, Adagio et Choral Varié, Op.4, sur le thème de Veni Creator
02. Prélude
03. Adagio
04. Choral Varié
05. Prélude sur l´Introït de l´Épiphanie, Op. 13
Prélude et fugue sur le nom d´Alain, Op.7
06. Prélude (Allegro)
07. Fugue (Andante)
08. Scherzo, Op. 2
09. Méditation, op. posth.
Suite, Op.5
10. Prélude
11. Sicilienne
12. Toccata


Exact Audio Copy V1.3 from 2. September 2016

EAC extraction logfile from 8. July 2018, 22:45

Hans Fagius / Duruflé - The Complete Organ Music

Used drive : PLDS DVD-RW DU8A6SH Adapter: 1 ID: 0

Read mode : Secure
Utilize accurate stream : Yes
Defeat audio cache : Yes
Make use of C2 pointers : No

Read offset correction : 6
Overread into Lead-In and Lead-Out : No
Fill up missing offset samples with silence : Yes
Delete leading and trailing silent blocks : No
Null samples used in CRC calculations : Yes
Used interface : Native Win32 interface for Win NT & 2000

Used output format : User Defined Encoder
Selected bitrate : 128 kBit/s
Quality : High
Add ID3 tag : No
Command line compressor : C:\Program Files (x86)\Exact Audio Copy\Flac\flac.exe
Additional command line options : -V -8 -T "Date=%year%" -T "Genre=%genre%" %source%

TOC of the extracted CD

Track | Start | Length | Start sector | End sector
––––––––––––––––––––––––––––-
1 | 0:00.00 | 3:56.23 | 0 | 17722
2 | 3:56.23 | 7:44.74 | 17723 | 52596
3 | 11:41.22 | 6:27.10 | 52597 | 81631
4 | 18:08.32 | 5:59.01 | 81632 | 108557
5 | 24:07.33 | 2:23.62 | 108558 | 119344
6 | 26:31.20 | 6:12.68 | 119345 | 147312
7 | 32:44.13 | 5:19.48 | 147313 | 171285
8 | 38:03.61 | 5:43.69 | 171286 | 197079
9 | 43:47.55 | 3:28.53 | 197080 | 212732
10 | 47:16.33 | 8:21.01 | 212733 | 250308
11 | 55:37.34 | 6:01.56 | 250309 | 277439
12 | 61:39.15 | 8:59.71 | 277440 | 317935

Range status and errors

Selected range

Filename C:\temp\BIS-CD-1304 - Durufle - The Complete Organ Music\Durufle - The Complete Organ Music.wav

Peak level 98.1 %
Extraction speed 3.9 X
Range quality 100.0 %
Test CRC 879FA069
Copy CRC 879FA069
Copy OK

No errors occurred

AccurateRip summary

Track 1 accurately ripped (confidence 2) [EC0B2DB6] (AR v2)
Track 2 accurately ripped (confidence 2) [1DBCDCBA] (AR v2)
Track 3 accurately ripped (confidence 2) [81422A3A] (AR v2)
Track 4 accurately ripped (confidence 2) [086B8178] (AR v2)
Track 5 accurately ripped (confidence 2) [B0397423] (AR v2)
Track 6 accurately ripped (confidence 2) [B8DBA06A] (AR v2)
Track 7 accurately ripped (confidence 2) [9B92DAC5] (AR v2)
Track 8 accurately ripped (confidence 2) [9B770904] (AR v2)
Track 9 accurately ripped (confidence 2) [6D580A4D] (AR v2)
Track 10 accurately ripped (confidence 2) [2FF2B2C2] (AR v2)
Track 11 accurately ripped (confidence 2) [2EB32F00] (AR v2)
Track 12 accurately ripped (confidence 2) [A00A34C3] (AR v2)

All tracks accurately ripped

End of status report

==== Log checksum 1446BA855F0365EB5F9D37D3B6FA1BDB6CDFBFB4DD3A98F8F1DB0512658F5D1B ====

Hans Fagius - Durufle: Veni Creator - The Complete Organ Music (2002)

Thanks to the original releaser