Subcategories

Harry Nilsson - A Little Touch Of Schmilsson In The Night (1973)

Posted By: v3122
Harry Nilsson - A Little Touch Of Schmilsson In The Night (1973)

Harry Nilsson - A Little Touch Of Schmilsson In The Night (1973)
EAC | Flac(Image) + Cue + Log & MP3 CBR 320Kbps
2006 | RCA/Legacy, 82876 78248 2 | ~ 291 or 131 Mb | Scans(jpg) -> 53 Mb
Pop Rock / Vocal

Nilsson was nearly a decade ahead of Linda Ronstadt and other nouveau crooners in hiring a conductor/arranger of the pre-rock era (in this case Gordon Jenkins) and recording an album of standards before a full orchestra. And he did it better than most, proving to be a marvelous interpreter of songs like "What'll I Do?" and "Makin' Whoopee!" His version of "As Time Goes By" became a minor hit.

by William Ruhlmann, allmusic
Harry Nilsson - A Little Touch Of Schmilsson In The Night (1973):

Harry Nilsson - A Little Touch Of Schmilsson In The Night (1973)

Tracklist:

1. Lazy Moon (3:22)
2. For Me And My Gal (2:47)
3. It Had To Be You (2:31)
4. Always (1:49)
5. Makin' Whoopee! (4:30)
6. You Made Me Love You (2:33)
7. Lullaby In Ragtime (3:40)
8. I Wonder Who's Kissing Her Now (2:38)
9. What'll I Do (2:27)
10. Nevertheless (I'm In Love With You) (2:39)
11. This Is All I Ask (3:36)
12. As Time Goes By (3:29)
13. I'm Always Chasing Rainbows (3:32)
14. Make Believe (2:25)
15. Trust In Me (2:29)
16. It's Only A Paper Moon (3:15)
17. Thanks For The Memory (2:48)
18. Over The Rainbow (3:49)

Exact Audio Copy V0.99 prebeta 3 from 28. July 2007

EAC extraction logfile from 11. August 2010, 20:39

Nilsson , Harry / A Little Touch Of Schmilsson In The Night (Remastered + Expanded) (1973)

Used drive : _NEC DVD_RW ND-2510A Adapter: 1 ID: 0

Read mode : Secure
Utilize accurate stream : Yes
Defeat audio cache : Yes
Make use of C2 pointers : No

Read offset correction : 48
Overread into Lead-In and Lead-Out : No
Fill up missing offset samples with silence : Yes
Delete leading and trailing silent blocks : No
Null samples used in CRC calculations : Yes
Used interface : Native Win32 interface for Win NT & 2000

Used output format : User Defined Encoder
Selected bitrate : 1024 kBit/s
Quality : High
Add ID3 tag : No
Command line compressor : C:\Program Files\Exact Audio Copy\Flac\flac.exe
Additional command line options : -8 -V %s


TOC of the extracted CD

Track | Start | Length | Start sector | End sector
––––––––––––––––––––––––––––-
1 | 0:00.00 | 3:22.35 | 0 | 15184
2 | 3:22.35 | 2:47.72 | 15185 | 27781
3 | 6:10.32 | 2:31.03 | 27782 | 39109
4 | 8:41.35 | 1:49.15 | 39110 | 47299
5 | 10:30.50 | 4:30.67 | 47300 | 67616
6 | 15:01.42 | 2:33.18 | 67617 | 79109
7 | 17:34.60 | 3:40.70 | 79110 | 95679
8 | 21:15.55 | 2:38.47 | 95680 | 107576
9 | 23:54.27 | 2:27.00 | 107577 | 118601
10 | 26:21.27 | 2:39.53 | 118602 | 130579
11 | 29:01.05 | 3:36.57 | 130580 | 146836
12 | 32:37.62 | 3:29.60 | 146837 | 162571
13 | 36:07.47 | 3:32.70 | 162572 | 178541
14 | 39:40.42 | 2:25.15 | 178542 | 189431
15 | 42:05.57 | 2:29.50 | 189432 | 200656
16 | 44:35.32 | 3:15.50 | 200657 | 215331
17 | 47:51.07 | 2:48.45 | 215332 | 227976
18 | 50:39.52 | 3:49.33 | 227977 | 245184


Range status and errors

Selected range

Filename I:\Раздача музыки Torrents\Nilsson, Harry\10. A Little Touch Of Schmilsson In The Night (1973)\Nilsson , Harry - A Little Touch Of Schmilsson In The Night (Remastered + Expanded) (1973).wav

Peak level 99.8 %
Range quality 100.0 %
Test CRC D47B19F3
Copy CRC D47B19F3
Copy OK

No errors occurred


AccurateRip summary

Track 1 accurately ripped (confidence 15) [A7A5A29E]
Track 2 accurately ripped (confidence 15) [EB0AD1D9]
Track 3 accurately ripped (confidence 15) [FCDBBE75]
Track 4 accurately ripped (confidence 15) [BB61202F]
Track 5 accurately ripped (confidence 15) [8D0C58F1]
Track 6 accurately ripped (confidence 15) [B903E3CA]
Track 7 accurately ripped (confidence 15) [9653D1E6]
Track 8 accurately ripped (confidence 15) [81928906]
Track 9 accurately ripped (confidence 15) [77BA9D83]
Track 10 accurately ripped (confidence 15) [2AB473ED]
Track 11 accurately ripped (confidence 15) [46EA1FB1]
Track 12 accurately ripped (confidence 15) [776AB55D]
Track 13 accurately ripped (confidence 15) [3BDF8BAF]
Track 14 accurately ripped (confidence 15) [8AAB1E9F]
Track 15 accurately ripped (confidence 15) [BB5A93FD]
Track 16 accurately ripped (confidence 15) [D600512F]
Track 17 accurately ripped (confidence 15) [572F51C2]
Track 18 accurately ripped (confidence 14) [D1EB9598]

All tracks accurately ripped

End of status report


[CUETools log; Date: 04.11.2017 10:23:50; Version: 2.1.5]
[AccurateRip ID: 00230525-01d4045f-fb0cc512] found.
Track [ CRC | V2 ] Status
01 [a7a5a29e|df25ef9f] (018+043/115) Accurately ripped
02 [eb0ad1d9|f89da4e3] (018+043/115) Accurately ripped
03 [fcdbbe75|8bc137f6] (018+043/115) Accurately ripped
04 [bb61202f|0bc26719] (018+043/115) Accurately ripped
05 [8d0c58f1|8e5d312f] (018+043/115) Accurately ripped
06 [b903e3ca|425db458] (018+043/115) Accurately ripped
07 [9653d1e6|4d16e8a9] (018+043/115) Accurately ripped
08 [81928906|91102a53] (018+043/115) Accurately ripped
09 [77ba9d83|653bbed1] (018+043/115) Accurately ripped
10 [2ab473ed|d43f2fb3] (018+043/115) Accurately ripped
11 [46ea1fb1|345dec78] (018+043/115) Accurately ripped
12 [776ab55d|30655e4a] (018+043/115) Accurately ripped
13 [3bdf8baf|aa97eb1f] (018+043/115) Accurately ripped
14 [8aab1e9f|1de9f692] (017+042/114) Accurately ripped
15 [bb5a93fd|42613a6d] (017+043/115) Accurately ripped
16 [d600512f|b64aac8e] (018+043/116) Accurately ripped
17 [572f51c2|5c97b582] (017+043/115) Accurately ripped
18 [d1eb9598|0439fbb5] (017+041/112) Accurately ripped
Offsetted by -664:
01 [8e53d791] (002/115) Accurately ripped
02 [65036c27] (002/115) Accurately ripped
03 [29d6f4e2] (002/115) Accurately ripped
04 [557fbf25] (002/115) Accurately ripped
05 [7261c655] (002/115) Accurately ripped
06 [b9c43b01] (002/115) Accurately ripped
07 [29268877] (002/115) Accurately ripped
08 [16af406e] (002/115) Accurately ripped
09 [aedb99f1] (002/115) Accurately ripped
10 [f09f6413] (002/115) Accurately ripped
11 [a3374bea] (002/115) Accurately ripped
12 [e05c17e0] (002/115) Accurately ripped
13 [af8537e7] (002/115) Accurately ripped
14 [2dbd10af] (002/114) Accurately ripped
15 [328273e5] (002/115) Accurately ripped
16 [033e8cf7] (002/116) Accurately ripped
17 [0323d782] (002/115) Accurately ripped
18 [54a669f7] (002/112) Accurately ripped
Offsetted by 682:
01 [008eab02] (006/115) Accurately ripped
02 [6e4fd35c] (006/115) Accurately ripped
03 [3743b07c] (006/115) Accurately ripped
04 [cf42c069] (006/115) Accurately ripped
05 [aaca5b5d] (006/115) Accurately ripped
06 [28950e70] (006/115) Accurately ripped
07 [e0027207] (006/115) Accurately ripped
08 [797b734d] (006/115) Accurately ripped
09 [51356f88] (006/115) Accurately ripped
10 [a704c8ea] (006/115) Accurately ripped
11 [3d54c99a] (006/115) Accurately ripped
12 [e98c42a6] (006/115) Accurately ripped
13 [d548a8ad] (006/115) Accurately ripped
14 [cc0b9443] (006/114) Accurately ripped
15 [3acc9c47] (006/115) Accurately ripped
16 [ac287e31] (006/116) Accurately ripped
17 [4f6f8ab2] (006/115) Accurately ripped
18 [e74515e0] (005/112) Accurately ripped
Offsetted by -24:
01 [18b36a88] (000/115) No match (V2 was not tested)
02 [3b87c4a0] (000/115) No match (V2 was not tested)
03 [daf1595e] (000/115) No match (V2 was not tested)
04 [0ba3395c] (000/115) No match (V2 was not tested)
05 [b487ec28] (000/115) No match (V2 was not tested)
06 [04cbb97d] (000/115) No match (V2 was not tested)
07 [1ec6385f] (000/115) No match (V2 was not tested)
08 [3f97b278] (000/115) No match (V2 was not tested)
09 [750a7f67] (000/115) No match (V2 was not tested)
10 [b109be41] (000/115) No match (V2 was not tested)
11 [9e2466cc] (000/115) No match (V2 was not tested)
12 [0e70322e] (000/115) No match (V2 was not tested)
13 [2a767f67] (000/115) No match (V2 was not tested)
14 [af67e9af] (000/114) No match (V2 was not tested)
15 [728d5e65] (000/115) No match (V2 was not tested)
16 [d177c577] (000/116) No match (V2 was not tested)
17 [7c3e5382] (000/115) No match (V2 was not tested)
18 [136c7e4a] (000/112) No match (V2 was not tested)

Track Peak [ CRC32 ] [W/O NULL] [ LOG ]
– 99,8 [D47B19F3] [F4E42ECD] CRC32
01 99,8 [A4385B5B] [CB8EF5EB]
02 96,3 [7D528B1B] [CA6AAEDF]
03 99,8 [DD6CD287] [E4ED0178]
04 99,8 [9EC805DD] [C897E103]
05 99,8 [A538E361] [4D07F423]
06 99,8 [AB846CEF] [7538A8B3]
07 99,8 [69AB1E93] [23A32CBC]
08 88,6 [45AEBBF9] [A120A70D]
09 99,8 [07817611] [F3FF97F9]
10 95,4 [9543E40F] [8D044AB1]
11 79,9 [F3AEA2E5] [ACFB46F4]
12 99,8 [B6DEBA08] [36FCD644]
13 88,9 [0A72CAC5] [DFDDFC6D]
14 88,6 [FC4D8E2C] [95B90A1F]
15 79,8 [AAFAA5ED] [4E30886A]
16 84,9 [77BFDA2B] [A48819E7]
17 84,9 [0FDCDADE] [1D727ADD]
18 99,4 [417AF659] [658357EA]


Harry Nilsson - A Little Touch Of Schmilsson In The Night (1973)

All thanks go to the original releaser

Harry Nilsson or Harry Nilsson in my Blog

Download Harry Nilsson - A Little Touch Of Schmilsson In The Night (1973):