Subcategories
Tags
Language
Tags

Helmut Walcha - Bach: Great Organ Works (1997)

Posted By: ArlegZ
Helmut Walcha - Bach: Great Organ Works (1997)

Helmut Walcha - Bach: Great Organ Works (1997)
EAC | FLAC | Image (Cue & Log) ~ 790 Mb | Total time: 73:48+71:10 | Scans included
Classical | Label: Deutsche Grammophon | # 453064 | Recorded: 1956, 1962, 1969-1971

"…Walcha's…carefully calculated interpretations create a genuine sense of organic unity and a deeply musical sense of line and phrase, which gains from felicitous registration using highly suitable organs, splendidly recorded."
– The Penguin Guide

Performer:
Helmut Walcha, organ

Track List:
CD1:
01. Toccata & Fugue in D minor BWV 565: I. Toccata - Adagio
02. II: Fugue
03. Toccata & Fugue in F major BWV 540: I. Toccata
04. II: Fugue
05. Toccata & Fugue BWV 538 "Dorian": I. Toccata
06. II: Fugue
07. Fantasia & Fugue in G minor BWV 542: I. Fantasia
08. II: Fugue
09. Fantasia in G major BWV 572
10. Passacaglia & Fugue in C minor BWV 582: I. Passacaglia
11. II: Fugue
CD2:
01. Prelude & Fugue in D major BWV 532: I. Prelude
02. II. Fugue
03. Prelude & Fugue in E flat major BWV 552: I. Praeludium pro organo pleno
04. II. Fuga a 5 con pedale pro organo pleno
05. Trio Sonata No. 3 in D minor BWV 527: I. Andante
06. II: Adagio e dolce
07. III: Vivace
Canonic Variations On The Christmas Hymn "Vom Himmel Hoch, Da Komm Ich Her" BWV 769:
08. Variatio 1: Nel Cnone All'ottava
09. Variatio 2: Alio Nodo, Nel Canone Alla Quinta
10. Variatio 3: Canone Alla Settima
11. Variatio 4: Per Augmentatinem, Nel Canone All'ottava
12. Variatio 5: Laltra Sorte Del Canone Al Revescio: 1) Alla Sesta, 2) Alla Terza, 3) Alla Seconda, 4) Alla Nona
6 "Schübler" Chorales:
13. Wachet Auf, Ruft Uns Die Stimme BWV 645
14. Wo Soll Ich Fliehen Hin BWV 646
15. Wer Nur Den Lieben Gott Läßt Walten BWV 647
16. Meine Seele Erhebet Den Herrn BWV 648
17. Ach Bleib Bei Uns, Herr Jesu Christ BWV 649
18. Kommst Du Nun, Jesu, Vom Himmel Herunter BMV 650


Exact Audio Copy V1.6 from 23. October 2020

EAC extraction logfile from 22. June 2021, 20:50

Helmut Walcha / Bach - Great Organ Works CD1

Used drive : PIONEER DVD-RW DVR-218L Adapter: 1 ID: 0

Read mode : Secure
Utilize accurate stream : Yes
Defeat audio cache : Yes
Make use of C2 pointers : No

Read offset correction : 6
Overread into Lead-In and Lead-Out : No
Fill up missing offset samples with silence : Yes
Delete leading and trailing silent blocks : No
Null samples used in CRC calculations : Yes
Used interface : Native Win32 interface for Win NT & 2000

Used output format : User Defined Encoder
Selected bitrate : 128 kBit/s
Quality : High
Add ID3 tag : No
Command line compressor : C:\Program Files\Exact Audio Copy\Flac\flac.exe
Additional command line options : -V -8 -T "Date=%year%" -T "Genre=%genre%" %source%


TOC of the extracted CD

Track | Start | Length | Start sector | End sector
––––––––––––––––––––––––––––-
1 | 0:00.00 | 2:36.07 | 0 | 11706
2 | 2:36.07 | 6:56.68 | 11707 | 42974
3 | 9:33.00 | 9:32.62 | 42975 | 85936
4 | 19:05.62 | 5:44.13 | 85937 | 111749
5 | 24:50.00 | 6:03.37 | 111750 | 139011
6 | 30:53.37 | 7:12.38 | 139012 | 171449
7 | 38:06.00 | 6:10.57 | 171450 | 199256
8 | 44:16.57 | 6:49.18 | 199257 | 229949
9 | 51:06.00 | 8:58.00 | 229950 | 270299
10 | 60:04.00 | 7:54.42 | 270300 | 305891
11 | 67:58.42 | 5:49.33 | 305892 | 332099


Range status and errors

Selected range

Filename C:\ArlegZ\Bach - Great Organ Works - Helmut Walcha CD1.wav

Peak level 100.0 %
Extraction speed 2.1 X
Range quality 100.0 %
Test CRC C1029F02
Copy CRC C1029F02
Copy OK

No errors occurred


AccurateRip summary

Track 1 accurately ripped (confidence 8) [214F2022] (AR v2)
Track 2 accurately ripped (confidence 8) [AA618E84] (AR v2)
Track 3 accurately ripped (confidence 8) [E5D68143] (AR v2)
Track 4 accurately ripped (confidence 8) [0F112255] (AR v2)
Track 5 accurately ripped (confidence 8) [6362B76E] (AR v2)
Track 6 accurately ripped (confidence 8) [3C7ADC8A] (AR v2)
Track 7 accurately ripped (confidence 8) [4AB3E914] (AR v2)
Track 8 accurately ripped (confidence 8) [27704783] (AR v2)
Track 9 accurately ripped (confidence 8) [5990C31A] (AR v2)
Track 10 accurately ripped (confidence 8) [3E5B6568] (AR v2)
Track 11 accurately ripped (confidence 8) [CCE57E8A] (AR v2)

All tracks accurately ripped

End of status report

–– CUETools DB Plugin V2.1.6

[CTDB TOCID: 60Uu.UFsIYZVA9J.mQqAzS0az6Y-] found
Submit result: 60Uu.UFsIYZVA9J.mQqAzS0az6Y- has been confirmed
Track | CTDB Status
1 | (158/158) Accurately ripped
2 | (158/158) Accurately ripped
3 | (158/158) Accurately ripped
4 | ( 93/158) Accurately ripped, or (5/158) differs in 148 samples @04:52:07,04:52:21-04:52:22,04:54:05,04:55:34-04:55:35,04:57:18,04:57:62,05:00:45-05:00:46,05:03:14-05:03:15,05:04:29, or (56/158) differs in 148 samples @04:52:07,04:52:21-04:52:22,04:54:05,04:55:34-04:55:35,04:57:18,04:57:62,05:00:45-05:00:46,05:03:14-05:03:15,05:04:29
5 | (158/158) Accurately ripped
6 | (157/158) Accurately ripped
7 | (153/158) Accurately ripped, or (5/158) differs in 2 samples @02:04:11
8 | (157/158) Accurately ripped
9 | (156/158) Accurately ripped
10 | (154/158) Accurately ripped
11 | (157/158) Accurately ripped


==== Log checksum 58C517BEA05BAA1333038A0CCE916DD2AB911513B034DF508E4B59C14425FA8F ====


Exact Audio Copy V1.6 from 23. October 2020

EAC extraction logfile from 22. June 2021, 22:01

Helmut Walcha / Bach - Great Organ Works CD2

Used drive : PIONEER DVD-RW DVR-218L Adapter: 1 ID: 0

Read mode : Secure
Utilize accurate stream : Yes
Defeat audio cache : Yes
Make use of C2 pointers : No

Read offset correction : 6
Overread into Lead-In and Lead-Out : No
Fill up missing offset samples with silence : Yes
Delete leading and trailing silent blocks : No
Null samples used in CRC calculations : Yes
Used interface : Native Win32 interface for Win NT & 2000

Used output format : User Defined Encoder
Selected bitrate : 128 kBit/s
Quality : High
Add ID3 tag : No
Command line compressor : C:\Program Files\Exact Audio Copy\Flac\flac.exe
Additional command line options : -V -8 -T "Date=%year%" -T "Genre=%genre%" %source%


TOC of the extracted CD

Track | Start | Length | Start sector | End sector
––––––––––––––––––––––––––––-
1 | 0:00.32 | 4:35.00 | 32 | 20656
2 | 4:35.32 | 6:12.00 | 20657 | 48556
3 | 10:47.32 | 9:18.30 | 48557 | 90436
4 | 20:05.62 | 7:23.45 | 90437 | 123706
5 | 27:29.32 | 4:40.50 | 123707 | 144756
6 | 32:10.07 | 5:38.25 | 144757 | 170131
7 | 37:48.32 | 4:05.00 | 170132 | 188506
8 | 41:53.32 | 1:29.38 | 188507 | 195219
9 | 43:22.70 | 1:25.12 | 195220 | 201606
10 | 44:48.07 | 2:20.25 | 201607 | 212131
11 | 47:08.32 | 2:51.00 | 212132 | 224956
12 | 49:59.32 | 3:07.00 | 224957 | 238981
13 | 53:06.32 | 4:14.00 | 238982 | 258031
14 | 57:20.32 | 2:04.00 | 258032 | 267331
15 | 59:24.32 | 3:12.00 | 267332 | 281731
16 | 62:36.32 | 1:54.00 | 281732 | 290281
17 | 64:30.32 | 3:10.00 | 290282 | 304531
18 | 67:40.32 | 3:32.00 | 304532 | 320431


Range status and errors

Selected range

Filename C:\ArlegZ\Bach - Great Organ Works - Helmut Walcha CD2.wav

Peak level 98.8 %
Extraction speed 2.1 X
Range quality 100.0 %
Test CRC 5B78F811
Copy CRC 5B78F811
Copy OK

No errors occurred


AccurateRip summary

Track 1 accurately ripped (confidence 8) [1A9A102F] (AR v2)
Track 2 accurately ripped (confidence 8) [E7030786] (AR v2)
Track 3 accurately ripped (confidence 8) [C4A8120D] (AR v2)
Track 4 accurately ripped (confidence 8) [FFE48714] (AR v2)
Track 5 accurately ripped (confidence 8) [2AB2A637] (AR v2)
Track 6 accurately ripped (confidence 8) [66006A59] (AR v2)
Track 7 accurately ripped (confidence 8) [80AEE6B8] (AR v2)
Track 8 accurately ripped (confidence 8) [23ACCFDA] (AR v2)
Track 9 accurately ripped (confidence 8) [B8F0E478] (AR v2)
Track 10 accurately ripped (confidence 8) [0BBD0461] (AR v2)
Track 11 accurately ripped (confidence 8) [697D2975] (AR v2)
Track 12 accurately ripped (confidence 8) [1822049C] (AR v2)
Track 13 accurately ripped (confidence 8) [71F59783] (AR v2)
Track 14 accurately ripped (confidence 8) [A5C8FCD8] (AR v2)
Track 15 accurately ripped (confidence 8) [324F21E9] (AR v2)
Track 16 accurately ripped (confidence 8) [081BF472] (AR v2)
Track 17 accurately ripped (confidence 8) [36510A9B] (AR v2)
Track 18 accurately ripped (confidence 8) [2B39A3F4] (AR v2)

All tracks accurately ripped

End of status report

–– CUETools DB Plugin V2.1.6

[CTDB TOCID: qfgC9BR6ASyuHmM.Kg7b2FSV8_k-] found
Submit result: qfgC9BR6ASyuHmM.Kg7b2FSV8_k- has been confirmed
Track | CTDB Status
1 | (60/60) Accurately ripped
2 | (60/60) Accurately ripped
3 | (60/60) Accurately ripped
4 | (60/60) Accurately ripped
5 | (60/60) Accurately ripped
6 | (60/60) Accurately ripped
7 | (60/60) Accurately ripped
8 | (60/60) Accurately ripped
9 | (60/60) Accurately ripped
10 | (60/60) Accurately ripped
11 | (60/60) Accurately ripped
12 | (60/60) Accurately ripped
13 | (60/60) Accurately ripped
14 | (60/60) Accurately ripped
15 | (60/60) Accurately ripped
16 | (60/60) Accurately ripped
17 | (60/60) Accurately ripped
18 | (60/60) Accurately ripped


==== Log checksum 8A50B86522B66DA1AC3C1943AF8F2CD4863AA80F684B13ED330A2CE2ECF1D6EE ====

Helmut Walcha - Bach: Great Organ Works (1997)