Tags
Language
Tags
February 2023
Su Mo Tu We Th Fr Sa
29 30 31 1 2 3 4
5 6 7 8 9 10 11
12 13 14 15 16 17 18
19 20 21 22 23 24 25
26 27 28 1 2 3 4

Henri Ledroit, Ricercar Consort - Kantaten der Bach‐Familie: Solo Kantaten (1984)

Posted By: ArlegZ
Henri Ledroit, Ricercar Consort - Kantaten der Bach‐Familie: Solo Kantaten (1984)

Henri Ledroit, Ricercar Consort - Kantaten der Bach‐Familie. Solo Kantaten (1984)
EAC | FLAC | Image (Cue & Log) ~ 232 Mb | Total time: 47:34 | Scans included
Classical | Label: Ricercar | # RIC 020002 | Recorded: 1983

The Ricercar Consort is a Belgian instrumental ensemble founded in 1980 together with the Ricercar record label of Jérôme Lejeune.The founding members were violinist François Fernandez, organist Bernard Foccroulle, and viola da gamba player Philippe Pierlot. The initial repertoire was focussed on the German Baroque, and the Consort was closely identified with the series Deutsche Barock Kantaten. In recordings and concerts the Consort was joined by baroque specialist singers including; Greta De Reyghere, Agnès Mellon, countertenors Henri Ledroit and James Bowman, tenor Guy de Mey and bass Max van Egmond, as well as the cornett player Jean Tubéry.

Performer:
Henri Ledroit, countertenor
Ricercar Consort

Track List:
Johann Sebastian Bach (1685-1750)
01. Schlage doch, gewünschte Stunde, BWV 53
02. Mit Weinen hebt sichs an
03. Wiederstehe doch der Sünde, BWV 54
Johann Michael Bach (1648-1694)
04. Ach wie sehnlich wart'ich der Zeit
Johann Bach (1604-1673)
05. Weint nicht un meinem Tod
Johann Michael Bach
06. Auf, lasst uns den Herren Loben
Johann Christoph Bach (1642-1703)
07. Ach, dass ich Wassers gnug hätte


Exact Audio Copy V1.5 from 20. February 2020

EAC extraction logfile from 3. March 2021, 23:58

Henri Ledroit / Kantaten der Bach‐Familie. Solo Kantaten

Used drive : ATAPI iHAS124 F Adapter: 1 ID: 0

Read mode : Secure
Utilize accurate stream : Yes
Defeat audio cache : Yes
Make use of C2 pointers : No

Read offset correction : 6
Overread into Lead-In and Lead-Out : No
Fill up missing offset samples with silence : Yes
Delete leading and trailing silent blocks : No
Null samples used in CRC calculations : Yes
Used interface : Native Win32 interface for Win NT & 2000

Used output format : User Defined Encoder
Selected bitrate : 1024 kBit/s
Quality : High
Add ID3 tag : No
Command line compressor : C:\Program Files (x86)\Exact Audio Copy\FLAC\FLAC.EXE
Additional command line options : -6 -V -T "ARTIST=%artist%" -T "TITLE=%title%" -T "ALBUM=%albumtitle%" -T "DATE=%year%" -T "TRACKNUMBER=%tracknr%" -T "GENRE=%genre%" -T "COMMENT=%comment%" -T "BAND=%albuminterpret%" -T "ALBUMARTIST=%albuminterpret%" -T "COMPOSER=%composer%" %haslyrics%–tag-from-file=LYRICS="%lyricsfile%"%haslyrics% -T "DISCNUMBER=%cdnumber%" -T "TOTALDISCS=%totalcds%" -T "TOTALTRACKS=%numtracks%" %hascover%–picture="%coverfile%"%hascover% %source% -o %dest%


TOC of the extracted CD

Track | Start | Length | Start sector | End sector
––––––––––––––––––––––––––––-
1 | 0:00.33 | 6:05.50 | 33 | 27457
2 | 6:06.08 | 5:18.12 | 27458 | 51319
3 | 11:24.20 | 13:33.33 | 51320 | 112327
4 | 24:57.53 | 6:52.72 | 112328 | 143299
5 | 31:50.50 | 1:50.43 | 143300 | 151592
6 | 33:41.18 | 6:52.40 | 151593 | 182532
7 | 40:33.58 | 7:00.37 | 182533 | 214069


Range status and errors

Selected range

Filename C:\EACRip\BACH\Bach - Kantaten der Bach‐Familie. Solo Kantaten (Henri Ledroit, Ricercar Consort) (1984)\Bach - Kantaten der Bach‐Familie. Solo Kantaten - Henri Ledroit, Ricercar Consort.wav

Peak level 100.0 %
Extraction speed 6.9 X
Range quality 99.9 %
Test CRC A708AAAD
Copy CRC A708AAAD
Copy OK

No errors occurred


AccurateRip summary

Track 1 accurately ripped (confidence 2) [84EA769F] (AR v2)
Track 2 accurately ripped (confidence 2) [AD22E4CE] (AR v2)
Track 3 accurately ripped (confidence 2) [751EF63C] (AR v2)
Track 4 accurately ripped (confidence 2) [30FF5859] (AR v2)
Track 5 accurately ripped (confidence 2) [A13B6DF7] (AR v2)
Track 6 accurately ripped (confidence 2) [267B13A2] (AR v2)
Track 7 accurately ripped (confidence 2) [3ECA8065] (AR v2)

All tracks accurately ripped

End of status report

–– CUETools DB Plugin V2.1.6

[CTDB TOCID: V6YJPE4iuAqyJ7X7ToxHK1LS3Y4-] found
Submit result: V6YJPE4iuAqyJ7X7ToxHK1LS3Y4- has been confirmed
Track | CTDB Status
1 | (13/13) Accurately ripped
2 | (13/13) Accurately ripped
3 | (13/13) Accurately ripped
4 | (13/13) Accurately ripped
5 | (13/13) Accurately ripped
6 | (13/13) Accurately ripped
7 | (12/13) Accurately ripped


==== Log checksum 85E0447E8CCAD20F224C17DB022FC4DF38A58468884B3B7BEE891EADEFC7CFE0 ====

Henri Ledroit, Ricercar Consort - Kantaten der Bach‐Familie: Solo Kantaten (1984)

Thanks to the original releaser