Subcategories
Tags
Language
Tags

Henrik Freischlader - Recorded by Martin Meinschäfer (2009)

Posted By: v3122
Henrik Freischlader - Recorded by Martin Meinschäfer (2009)

Henrik Freischlader - Recorded by Martin Meinschäfer (2009)
EAC | Flac(Image) + Cue + Log & MP3 CBR 320Kbps
Cable Car, CCR 0311-33 | ~ 457 or 178 Mb | Scans(jpg) -> 111 Mb
Blues Rock

Henrik Freischlader Alone, Plays Every Instrument on this disc,AND is the "Producer" TOO !! From the sound bytes You can hear how good this guy is ,but what the sound bytes don't say is this disc comes In A Tri-Fold Digi-pak with a great 20 page Vintage looking booklet,All loaded with Back ground info,Cool Pics & Song Lyrics Too. This is already a collectors item by an Obscure monster guitarist.

By terrysknary, amazon
Henrik Freischlader - Recorded by Martin Meinschäfer (2009)


Henrik Freischlader - Recorded by Martin Meinschäfer (2009):

Henrik Freischlader - Recorded by Martin Meinschäfer (2009)

Tracklist:

01. I - 4:34
02. Got it made (like this) - 3:54
03. So damn cool - 4:56
04. You will come - 5:26
05. Breakout - 5:30
06. In your arms - 5:30
07. The Bridge - 8:17
08. Cry again - 8:38
09. The wrong way - 3:09
10. Never be true - 3:37
11. Desert Love - 8:23
12. Bad Dreams - 8:29
13. Your love of mine - 3:36

Exact Audio Copy V1.0 beta 3 from 29. August 2011

EAC extraction logfile from 28. December 2013, 20:15

Henrik Freischlader / Recorded by Martin Meinschafer

Used drive : ATAPI iHAS124 B Adapter: 2 ID: 0

Read mode : Secure
Utilize accurate stream : Yes
Defeat audio cache : Yes
Make use of C2 pointers : No

Read offset correction : 6
Overread into Lead-In and Lead-Out : No
Fill up missing offset samples with silence : Yes
Delete leading and trailing silent blocks : No
Null samples used in CRC calculations : Yes
Used interface : Native Win32 interface for Win NT & 2000

Used output format : User Defined Encoder
Selected bitrate : 1024 kBit/s
Quality : High
Add ID3 tag : No
Command line compressor : C:\Program Files (x86)\Exact Audio Copy\FLAC\FLAC.EXE
Additional command line options : -8 -V -T "ARTIST=%artist%" -T "TITLE=%title%" -T "ALBUM=%albumtitle%" -T "DATE=%year%" -T "TRACKNUMBER=%tracknr%" -T "GENRE=%genre%" -T "PERFORMER=%albuminterpret%" -T "COMPOSER=%composer%" %haslyrics%–tag-from-file=LYRICS="%lyricsfile%"%haslyrics% -T "ALBUMARTIST=%albumartist%" -T "DISCNUMBER=%cdnumber%" -T "TOTALDISCS=%totalcds%" -T "TOTALTRACKS=%numtracks%" -T "COMMENT=%comment%" %source% -o %dest%


TOC of the extracted CD

Track | Start | Length | Start sector | End sector
––––––––––––––––––––––––––––-
1 | 0:00.00 | 4:34.16 | 0 | 20565
2 | 4:34.16 | 3:53.60 | 20566 | 38100
3 | 8:28.01 | 4:56.13 | 38101 | 60313
4 | 13:24.14 | 5:26.32 | 60314 | 84795
5 | 18:50.46 | 5:29.61 | 84796 | 109531
6 | 24:20.32 | 5:29.53 | 109532 | 134259
7 | 29:50.10 | 8:16.60 | 134260 | 171519
8 | 38:06.70 | 8:37.71 | 171520 | 210365
9 | 46:44.66 | 3:09.23 | 210366 | 224563
10 | 49:54.14 | 3:37.29 | 224564 | 240867
11 | 53:31.43 | 8:23.07 | 240868 | 278599
12 | 61:54.50 | 8:28.41 | 278600 | 316740
13 | 70:23.16 | 3:36.22 | 316741 | 332962


Range status and errors

Selected range

Filename G:\CD\Henrik Freischlader - Recorded by Martin Meinschafer.wav

Peak level 100.0 %
Extraction speed 6.4 X
Range quality 99.9 %
Test CRC 6234C0EA
Copy CRC 6234C0EA
Copy OK

No errors occurred


AccurateRip summary

Track 1 cannot be verified as accurate (confidence 26) [0BE7AEE8], AccurateRip returned [2EE47866] (AR v2)
Track 2 cannot be verified as accurate (confidence 25) [1AF5BC74], AccurateRip returned [CC4061B0] (AR v2)
Track 3 cannot be verified as accurate (confidence 25) [253F5FAF], AccurateRip returned [9991A1B6] (AR v2)
Track 4 cannot be verified as accurate (confidence 25) [6241B346], AccurateRip returned [CA963C5F] (AR v2)
Track 5 cannot be verified as accurate (confidence 25) [C043BEDB], AccurateRip returned [26C3877B] (AR v2)
Track 6 cannot be verified as accurate (confidence 25) [76406F80], AccurateRip returned [CF7B9D36] (AR v2)
Track 7 cannot be verified as accurate (confidence 25) [77D19E73], AccurateRip returned [AD264D6C] (AR v2)
Track 8 cannot be verified as accurate (confidence 25) [C01E0238], AccurateRip returned [445DA4B2] (AR v2)
Track 9 cannot be verified as accurate (confidence 25) [73877626], AccurateRip returned [78B4435B] (AR v2)
Track 10 cannot be verified as accurate (confidence 25) [63106045], AccurateRip returned [10186179] (AR v2)
Track 11 cannot be verified as accurate (confidence 25) [338AE40A], AccurateRip returned [793D4554] (AR v2)
Track 12 cannot be verified as accurate (confidence 25) [E6C4AE43], AccurateRip returned [E1B148C9] (AR v2)
Track 13 cannot be verified as accurate (confidence 25) [8F9652CF], AccurateRip returned [84F422FD] (AR v2)

No tracks could be verified as accurate
You may have a different pressing from the one(s) in the database

End of status report

==== Log checksum DF4898AB8E194CD62A5F05F72A21DE3D674CE865A1656495069F2FA74E4CCA9D ====


[CUETools log; Date: 10.10.2017 20:30:40; Version: 2.1.5]
[AccurateRip ID: 0021ec57-015a6261-b111570d] found.
Track [ CRC | V2 ] Status
01 [a0b09026|0be7aee8] (00+08/58) Accurately ripped
02 [a17bdfb2|1af5bc74] (00+08/57) Accurately ripped
03 [c38ec43e|253f5faf] (00+08/58) Accurately ripped
04 [a0c7b093|6241b346] (00+08/58) Accurately ripped
05 [1524d7df|c043bedb] (00+08/58) Accurately ripped
06 [509816c0|76406f80] (00+08/58) Accurately ripped
07 [cf0785fe|77d19e73] (00+08/57) Accurately ripped
08 [9413affe|c01e0238] (00+08/58) Accurately ripped
09 [9f19d69b|73877626] (00+08/57) Accurately ripped
10 [f730fd89|63106045] (00+08/57) Accurately ripped
11 [57cbf4f4|338ae40a] (00+08/58) Accurately ripped
12 [6bed5df1|e6c4ae43] (00+08/57) Accurately ripped
13 [21ff4693|8f9652cf] (00+08/58) Accurately ripped
Offsetted by 18:
01 [2ee47866] (27/58) Accurately ripped
02 [cc4061b0] (26/57) Accurately ripped
03 [9991a1b6] (27/58) Accurately ripped
04 [ca963c5f] (26/58) Accurately ripped
05 [26c3877b] (26/58) Accurately ripped
06 [cf7b9d36] (26/58) Accurately ripped
07 [ad264d6c] (26/57) Accurately ripped
08 [445da4b2] (26/58) Accurately ripped
09 [78b4435b] (26/57) Accurately ripped
10 [10186179] (26/57) Accurately ripped
11 [793d4554] (26/58) Accurately ripped
12 [e1b148c9] (26/57) Accurately ripped
13 [84f422fd] (26/58) Accurately ripped
Offsetted by -84:
01 [954bc188] (00/58) No match (V2 was not tested)
02 [d9e6d666] (00/57) No match (V2 was not tested)
03 [322c100e] (00/58) No match (V2 was not tested)
04 [3303cedb] (00/58) No match (V2 was not tested)
05 [18404f07] (00/58) No match (V2 was not tested)
06 [55c7a344] (00/58) No match (V2 was not tested)
07 [c277e352] (00/57) No match (V2 was not tested)
08 [080fe4b6] (00/58) No match (V2 was not tested)
09 [fcf3db1b] (00/57) No match (V2 was not tested)
10 [82f92b29] (00/57) No match (V2 was not tested)
11 [6665d334] (00/58) No match (V2 was not tested)
12 [465b1601] (00/57) No match (V2 was not tested)
13 [2abdeec0] (00/58) No match (V2 was not tested)

Track Peak [ CRC32 ] [W/O NULL] [ LOG ]
– 100,0 [6234C0EA] [C9665A5C] CRC32
01 100,0 [D14374CF] [D7AD7CBC]
02 100,0 [320271D9] [15EBC209]
03 99,6 [785572DE] [262EC4F3]
04 100,0 [30C3C157] [E099162E]
05 100,0 [C42D5866] [76FF7E9F]
06 100,0 [40B934FC] [CE23FE3C]
07 100,0 [9DC74D47] [604981A3]
08 99,2 [FFB38F08] [25B89910]
09 100,0 [F9E2D25E] [8037BFC3]
10 99,8 [2FFAF3AC] [353968FB]
11 99,9 [551316B2] [E06267A2]
12 99,7 [07429E72] [861011FA]
13 99,1 [8F102538] [FEB88F3D]


Henrik Freischlader - Recorded by Martin Meinschäfer (2009)

All thanks go to gerrV

Henrik Freischlader or Henrik Freischlader in my Blog

Download Henrik Freischlader - Recorded by Martin Meinschäfer (2009):