Tags
Language
Tags
June 2024
Su Mo Tu We Th Fr Sa
26 27 28 29 30 31 1
2 3 4 5 6 7 8
9 10 11 12 13 14 15
16 17 18 19 20 21 22
23 24 25 26 27 28 29
30 1 2 3 4 5 6

Herb Ellis Trio - Sweet and Lovely (1984)

Posted By: gribovar
Herb Ellis Trio - Sweet and Lovely (1984)

Herb Ellis Trio - Sweet and Lovely (1984)
EAC Rip | FLAC (image+.cue+log) - 207 MB | MP3 CBR 320 kbps (LAME 3.93) - 100 MB | Covers - 41 MB
Genre: Jazz, Bop, Cool Jazz | RAR 3% Rec. | Label: Atlas (AC35-7)

An excellent bop-based guitarist with a slight country twang to his sound, Herb Ellis became famous playing with the Oscar Peterson Trio during 1953-1958. Prior to that, he had attended North Texas State University and played with the Casa Loma Orchestra, Jimmy Dorsey (1945-1947), and the sadly under-recorded trio Soft Winds. While with Peterson, Ellis was on some Jazz at the Philharmonic tours and had a few opportunities to lead his own dates for Verve, including his personal favorite, Nothing But the Blues (1957). After leaving Peterson, Ellis toured a bit with Ella Fitzgerald; became a studio musician on the West Coast; made sessions with the Dukes of Dixieland, Stuff Smith, and Charlie Byrd; and in the 1970s became much more active in the jazz world. He can be heard on the first three releases issued by the Concord label, interacting with Joe Pass on the initial two, and he toured with the Great Guitars (along with Byrd and Barney Kessel) through much of the 1970s into the '80s. After a long series of Concord albums, Ellis cut a couple of excellent sessions in the 1990s for Justice, as well as 1999's Burnin' on Acoustic Music. After battling Alzheimer's disease, Herb Ellis died at the age of 88 at his home in Los Angeles on March 28, 2010.
Tracklist:
01. Bags' Groove
02. Angel Eyes
03. Sweet and Lovely
04. Willow Weep for Me
05. What Is This Thing Called Love
06. The Shadow of Your Smile
07. Fred
08. I Only Have Eyes for You
09. Gunk and Funk

Total time: 42:35

Exact Audio Copy V1.6 from 23. October 2020

EAC extraction logfile from 12. March 2024, 0:19

Herb Ellis Trio / Sweet And Lovely

Used drive : HL-DT-STBD-RE WH16NS40 Adapter: 1 ID: 0

Read mode : Secure
Utilize accurate stream : Yes
Defeat audio cache : Yes
Make use of C2 pointers : No

Read offset correction : 6
Overread into Lead-In and Lead-Out : No
Fill up missing offset samples with silence : Yes
Delete leading and trailing silent blocks : No
Null samples used in CRC calculations : Yes
Used interface : Native Win32 interface for Win NT & 2000
Gap handling : Appended to previous track

Used output format : User Defined Encoder
Selected bitrate : 1024 kBit/s
Quality : High
Add ID3 tag : No
Command line compressor : C:\Program Files (x86)\Exact Audio Copy\FLAC\FLAC.EXE
Additional command line options : -8 -V -T "ARTIST=%artist%" -T "TITLE=%title%" -T "ALBUM=%albumtitle%" -T "DATE=%year%" -T "TRACKNUMBER=%tracknr%" -T "GENRE=%genre%" -T "PERFORMER=%albuminterpret%" -T "COMPOSER=%composer%" %haslyrics%–tag-from-file=LYRICS="%lyricsfile%"%haslyrics% -T "ALBUMARTIST=%albumartist%" -T "DISCNUMBER=%cdnumber%" -T "TOTALDISCS=%totalcds%" -T "TOTALTRACKS=%numtracks%" -T "COMMENT=%comment%" %source% -o %dest%


TOC of the extracted CD

Track | Start | Length | Start sector | End sector
––––––––––––––––––––––––––––-
1 | 0:00.00 | 4:49.00 | 0 | 21674
2 | 4:49.00 | 4:31.57 | 21675 | 42056
3 | 9:20.57 | 5:18.55 | 42057 | 65961
4 | 14:39.37 | 5:47.38 | 65962 | 92024
5 | 20:27.00 | 4:34.20 | 92025 | 112594
6 | 25:01.20 | 5:34.30 | 112595 | 137674
7 | 30:35.50 | 3:16.00 | 137675 | 152374
8 | 33:51.50 | 3:26.25 | 152375 | 167849
9 | 37:18.00 | 5:16.62 | 167850 | 191611


Track 1

Filename C:\EAC Rips\Herb Ellis Trio - Sweet And Lovely (1984) [FLAC] {AC35-7}\01 - Bags Groove.wav

Pre-gap length 0:00:02.00

Peak level 100.0 %
Extraction speed 5.1 X
Track quality 100.0 %
Test CRC E15E5838
Copy CRC E15E5838
Accurately ripped (confidence 1) [5C1D6811] (AR v2)
Copy OK

Track 2

Filename C:\EAC Rips\Herb Ellis Trio - Sweet And Lovely (1984) [FLAC] {AC35-7}\02 - Angel Eyes.wav

Pre-gap length 0:00:02.58

Peak level 75.7 %
Extraction speed 5.7 X
Track quality 100.0 %
Test CRC 8C779838
Copy CRC 8C779838
Accurately ripped (confidence 1) [4DAEADC2] (AR v2)
Copy OK

Track 3

Filename C:\EAC Rips\Herb Ellis Trio - Sweet And Lovely (1984) [FLAC] {AC35-7}\03 - Sweet And Lovely.wav

Pre-gap length 0:00:02.50

Peak level 100.0 %
Extraction speed 5.4 X
Track quality 99.9 %
Test CRC 212C4186
Copy CRC 212C4186
Accurately ripped (confidence 1) [26B86228] (AR v2)
Copy OK

Track 4

Filename C:\EAC Rips\Herb Ellis Trio - Sweet And Lovely (1984) [FLAC] {AC35-7}\04 - Willow Weep For Me.wav

Pre-gap length 0:00:02.25

Peak level 78.1 %
Extraction speed 6.9 X
Track quality 100.0 %
Test CRC 6967FC9B
Copy CRC 6967FC9B
Accurately ripped (confidence 1) [4256A178] (AR v2)
Copy OK

Track 5

Filename C:\EAC Rips\Herb Ellis Trio - Sweet And Lovely (1984) [FLAC] {AC35-7}\05 - What Is This Thing Called Love.wav

Pre-gap length 0:00:03.00

Peak level 100.0 %
Extraction speed 7.2 X
Track quality 100.0 %
Test CRC B02B2237
Copy CRC B02B2237
Accurately ripped (confidence 1) [D265505B] (AR v2)
Copy OK

Track 6

Filename C:\EAC Rips\Herb Ellis Trio - Sweet And Lovely (1984) [FLAC] {AC35-7}\06 - The Shadow Of Your Smile.wav

Pre-gap length 0:00:02.43

Peak level 69.3 %
Extraction speed 7.8 X
Track quality 100.0 %
Test CRC D9593644
Copy CRC D9593644
Accurately ripped (confidence 1) [B1384C3C] (AR v2)
Copy OK

Track 7

Filename C:\EAC Rips\Herb Ellis Trio - Sweet And Lovely (1984) [FLAC] {AC35-7}\07 - Fred.wav

Pre-gap length 0:00:02.43

Peak level 77.9 %
Extraction speed 7.7 X
Track quality 100.0 %
Test CRC 41F9E2E3
Copy CRC 41F9E2E3
Accurately ripped (confidence 1) [6CA34DAF] (AR v2)
Copy OK

Track 8

Filename C:\EAC Rips\Herb Ellis Trio - Sweet And Lovely (1984) [FLAC] {AC35-7}\08 - I Only Have Eyes For You.wav

Pre-gap length 0:00:02.48

Peak level 100.0 %
Extraction speed 8.0 X
Track quality 100.0 %
Test CRC BEA84BDC
Copy CRC BEA84BDC
Accurately ripped (confidence 1) [1560EB61] (AR v2)
Copy OK

Track 9

Filename C:\EAC Rips\Herb Ellis Trio - Sweet And Lovely (1984) [FLAC] {AC35-7}\09 - Gunk And Funk.wav

Pre-gap length 0:00:02.50

Peak level 100.0 %
Extraction speed 8.7 X
Track quality 100.0 %
Test CRC 8B84DAC0
Copy CRC 8B84DAC0
Accurately ripped (confidence 1) [EE8DA28A] (AR v2)
Copy OK


All tracks accurately ripped

No errors occurred

End of status report

–– CUETools DB Plugin V2.1.6

[CTDB TOCID: cZMpmCNEcpfZhvbpMtSN4G2wfxI-] disk not present in database
Submit result: cZMpmCNEcpfZhvbpMtSN4G2wfxI- has been uploaded


==== Log checksum 5F6177828CDE03CF49B9764FD8976F33C57035404B4F30E5C1B05214EAF583D2 ====

[CUETools log; Date: 13.03.2024 15:24:50; Version: 2.1.4]
[CTDB TOCID: cZMpmCNEcpfZhvbpMtSN4G2wfxI-] found.
Track | CTDB Status
1 | (1/1) Accurately ripped
2 | (1/1) Accurately ripped
3 | (1/1) Accurately ripped
4 | (1/1) Accurately ripped
5 | (1/1) Accurately ripped
6 | (1/1) Accurately ripped
7 | (1/1) Accurately ripped
8 | (1/1) Accurately ripped
9 | (1/1) Accurately ripped
[AccurateRip ID: 000f0312-006d8940-6609fa09] found.
Track [ CRC | V2 ] Status
01 [4658e04d|5c1d6811] (1+1/2) Accurately ripped
02 [e7f508ba|4daeadc2] (1+1/2) Accurately ripped
03 [c675031f|26b86228] (1+1/2) Accurately ripped
04 [205c3892|4256a178] (1+1/2) Accurately ripped
05 [a0b57cff|d265505b] (1+1/2) Accurately ripped
06 [08bbdcba|b1384c3c] (1+1/2) Accurately ripped
07 [5b62d154|6ca34daf] (1+1/2) Accurately ripped
08 [2093d237|1560eb61] (1+1/2) Accurately ripped
09 [f90316b7|ee8da28a] (1+1/2) Accurately ripped

Track Peak [ CRC32 ] [W/O NULL] [ LOG ]
– 100,0 [678D46A8] [8D26A9FD]
01 100,0 [E15E5838] [093764F6] CRC32
02 75,7 [8C779838] [7F7EF8DE] CRC32
03 100,0 [212C4186] [8219104F] CRC32
04 78,1 [6967FC9B] [8FCCB93E] CRC32
05 100,0 [B02B2237] [842E65DA] CRC32
06 69,3 [D9593644] [A3004F32] CRC32
07 77,9 [41F9E2E3] [C57B0FAC] CRC32
08 100,0 [BEA84BDC] [38D4CC16] CRC32
09 100,0 [8B84DAC0] [E19E5077] CRC32

Thanks to AudioCloth