Tags
Language
Tags
April 2024
Su Mo Tu We Th Fr Sa
31 1 2 3 4 5 6
7 8 9 10 11 12 13
14 15 16 17 18 19 20
21 22 23 24 25 26 27
28 29 30 1 2 3 4

Herd of Instinct - Drone Priest (2017)

Posted By: gribovar
Herd of Instinct - Drone Priest (2017)

Herd of Instinct - Drone Priest (2017)
EAC Rip | FLAC (tracks+.cue+log) - 279 MB | Covers - 55 MB
Genre: Instrumental Progressive Rock | RAR 3% Rec. | Label: Firepool Records (FR007)

For over a decade, Herd of Instinct - that Little Ole Obscure Prog Band from Texas - has quietly created a body of work that reflects the wild diversity that is Prog Rock. Their newly released fourth album, Drone Priest, on Djam Karet’s Firepool Records, takes the listener on a journey exploring mood, texture, and experimental song structures. The most dynamic and varied album the band has produced to-date, Drone Priest seamlessly layers elements of prog, post rock, ambient drones, jazz, and complex percussion, while showcasing the Warr guitar and analog synths to create a unique blend of genres. Composed by Mark Cook (Spoke of Shadows, Hands, Liquid Sound Company), Drone Priest features guests Adam Holzman (Miles Davis, Steven Wilson), Gayle Ellett (Djam Karet), Marco Machera (EchoTest), and Bill Bachman (Spoke of Shadows, Michael Harris, Neil Morse).

Tracklist:
01. Fragments of a Portrait
02. Cosmos
03. Drone Priest
04. Slow Current
05. Orphan
06. Filament
07. Count to 5
08. Zero Point Flow
09. Soft Glow
10. Almost Transparent Blue
11. The Blood Jet is Poetry

Total time: 51:58

Exact Audio Copy V1.0 beta 4 from 7. December 2014

EAC extraction logfile from 14. June 2018, 12:53

Herd of Instinct / Drone Priest

Used drive : ATAPI iHAS124 E Adapter: 1 ID: 0

Read mode : Secure
Utilize accurate stream : Yes
Defeat audio cache : Yes
Make use of C2 pointers : No

Read offset correction : 6
Overread into Lead-In and Lead-Out : No
Fill up missing offset samples with silence : Yes
Delete leading and trailing silent blocks : No
Null samples used in CRC calculations : Yes
Used interface : Native Win32 interface for Win NT & 2000
Gap handling : Appended to previous track

Used output format : User Defined Encoder
Selected bitrate : 768 kBit/s
Quality : High
Add ID3 tag : No
Command line compressor : C:\Program Files (x86)\flac-1.3.2-win\win64\flac.exe
Additional command line options : -8 -V -T "ARTIST=%artist%" -T "TITLE=%title%" -T "ALBUM=%albumtitle%" -T "DATE=%year%" -T "TRACKNUMBER=%tracknr%" -T "GENRE=%genre%" -T "COMMENT=ripped by vp_sunset" %source% -o %dest%


TOC of the extracted CD

Track | Start | Length | Start sector | End sector
––––––––––––––––––––––––––––-
1 | 0:00.00 | 2:45.58 | 0 | 12432
2 | 2:45.58 | 4:17.02 | 12433 | 31709
3 | 7:02.60 | 5:28.69 | 31710 | 56378
4 | 12:31.54 | 3:55.74 | 56379 | 74077
5 | 16:27.53 | 4:25.35 | 74078 | 93987
6 | 20:53.13 | 4:22.43 | 93988 | 113680
7 | 25:15.56 | 4:32.35 | 113681 | 134115
8 | 29:48.16 | 4:44.61 | 134116 | 155476
9 | 34:33.02 | 6:19.63 | 155477 | 183964
10 | 40:52.65 | 4:42.36 | 183965 | 205150
11 | 45:35.26 | 6:22.52 | 205151 | 233852


Track 1

Filename C:\_EAC\01. Fragments of a Portrait.wav

Pre-gap length 0:00:02.00

Peak level 94.3 %
Extraction speed 1.6 X
Track quality 100.0 %
Test CRC A02590B1
Copy CRC A02590B1
Track not present in AccurateRip database
Copy OK

Track 2

Filename C:\_EAC\02. Cosmos.wav

Peak level 94.3 %
Extraction speed 2.0 X
Track quality 100.0 %
Test CRC 86C452C9
Copy CRC 86C452C9
Track not present in AccurateRip database
Copy OK

Track 3

Filename C:\_EAC\03. Drone Priest.wav

Peak level 94.3 %
Extraction speed 2.3 X
Track quality 100.0 %
Test CRC CC8D1C4E
Copy CRC CC8D1C4E
Track not present in AccurateRip database
Copy OK

Track 4

Filename C:\_EAC\04. Slow Current.wav

Peak level 94.3 %
Extraction speed 2.4 X
Track quality 100.0 %
Test CRC F4EE553A
Copy CRC F4EE553A
Track not present in AccurateRip database
Copy OK

Track 5

Filename C:\_EAC\05. Orphan.wav

Peak level 94.3 %
Extraction speed 2.6 X
Track quality 100.0 %
Test CRC 0A55652A
Copy CRC 0A55652A
Track not present in AccurateRip database
Copy OK

Track 6

Filename C:\_EAC\06. Filament.wav

Peak level 94.3 %
Extraction speed 2.1 X
Track quality 99.9 %
Test CRC A7E6CD6F
Copy CRC A7E6CD6F
Track not present in AccurateRip database
Copy OK

Track 7

Filename C:\_EAC\07. Count to 5.wav

Peak level 94.3 %
Extraction speed 3.0 X
Track quality 100.0 %
Test CRC D61ECED2
Copy CRC D61ECED2
Track not present in AccurateRip database
Copy OK

Track 8

Filename C:\_EAC\08. Zero Point Flow.wav

Peak level 94.3 %
Extraction speed 3.1 X
Track quality 100.0 %
Test CRC C6755332
Copy CRC C6755332
Track not present in AccurateRip database
Copy OK

Track 9

Filename C:\_EAC\09. Soft Glow.wav

Peak level 94.3 %
Extraction speed 3.4 X
Track quality 100.0 %
Test CRC 1D729F96
Copy CRC 1D729F96
Track not present in AccurateRip database
Copy OK

Track 10

Filename C:\_EAC\10. Almost Transparent Blue.wav

Peak level 93.1 %
Extraction speed 3.5 X
Track quality 100.0 %
Test CRC 713323A3
Copy CRC 713323A3
Track not present in AccurateRip database
Copy OK

Track 11

Filename C:\_EAC\11. The Blood Jet is Poetry.wav

Peak level 87.8 %
Extraction speed 3.7 X
Track quality 100.0 %
Test CRC 0456720C
Copy CRC 0456720C
Track not present in AccurateRip database
Copy OK


None of the tracks are present in the AccurateRip database

No errors occurred

End of status report

–– CUETools DB Plugin V2.1.4

[CTDB TOCID: oa.Vefzhd3z5P_HE5cjOJPit6xo-] found
Submit result: oa.Vefzhd3z5P_HE5cjOJPit6xo- has been confirmed
Track | CTDB Status
1 | (1/1) Accurately ripped
2 | (1/1) Accurately ripped
3 | (1/1) Accurately ripped
4 | (1/1) Accurately ripped
5 | (1/1) Accurately ripped
6 | (1/1) Accurately ripped
7 | (1/1) Accurately ripped
8 | (1/1) Accurately ripped
9 | (1/1) Accurately ripped
10 | (1/1) Accurately ripped
11 | (1/1) Accurately ripped


==== Log checksum 1BA92EA12EA4D175E10BCA2AE7911474177C1BA4F1DA96DCA94FB0C0D285E6E6 ====

[CUETools log; Date: 14.06.2018 23:09:50; Version: 2.1.4]
[CTDB TOCID: oa.Vefzhd3z5P_HE5cjOJPit6xo-] found.
Track | CTDB Status
1 | (2/2) Accurately ripped
2 | (2/2) Accurately ripped
3 | (2/2) Accurately ripped
4 | (2/2) Accurately ripped
5 | (2/2) Accurately ripped
6 | (2/2) Accurately ripped
7 | (2/2) Accurately ripped
8 | (2/2) Accurately ripped
9 | (2/2) Accurately ripped
10 | (2/2) Accurately ripped
11 | (2/2) Accurately ripped
[AccurateRip ID: 0013c1ef-00aeb7fe-9f0c2e0b] disk not present in database.

Track Peak [ CRC32 ] [W/O NULL] [ LOG ]
– 94,3 [D416DB38] [66AB5F4E]
01 94,3 [A02590B1] [B26ADDB4] CRC32
02 94,3 [86C452C9] [FD0DF3DC] CRC32
03 94,3 [CC8D1C4E] [93A42EFE] CRC32
04 94,3 [F4EE553A] [59103BA4] CRC32
05 94,3 [0A55652A] [59E7AF14] CRC32
06 94,3 [A7E6CD6F] [A88AC8AB] CRC32
07 94,3 [D61ECED2] [62CB9A71] CRC32
08 94,3 [C6755332] [C9051BB6] CRC32
09 94,3 [1D729F96] [CA872E7C] CRC32
10 93,1 [713323A3] [7FC5EE3A] CRC32
11 87,8 [0456720C] [E1FFAE10] CRC32

Thanks to vp_sunset

See also:
Herd of Instinct - Herd of Instinct (2011)