Subcategories

Hermann Max, Das Kleine Konzert, Rheinische Kantorei - Carl Heinrich Graun: Grosse Passion (2009)

Posted By: ArlegZ
Hermann Max, Das Kleine Konzert, Rheinische Kantorei - Carl Heinrich Graun: Grosse Passion (2009)

Hermann Max, Das Kleine Konzert, Rheinische Kantorei - Carl Heinrich Graun: Große Passion (2009)
EAC | FLAC | Image (Cue & Log) ~ 601 Mb | Total time: 122:22 | Scans included
Classical | Label: CPO | # 777 452-2 | Recorded: 2008

Graun was in his mid-twenties when he composed this Grand Passion . It is a surprisingly mature work, full of subtle gems. When first listening to this two-CD album, I wrote: “The music is very pleasant. Although it is quite tuneful, little of it is memorable and at two hours tends to wear out its welcome. There is almost a monotonous similarity of one number to the next. It needs something rousing like the ‘Hallelujah’ chorus.” Repeated hearings of this album have increased my appreciation considerably. Even Handel liked this Passion , and quoted some of its music in his own works.
Graun establishes a musical mood and varies little from it. The music in the Grosse Passion is not as flamboyant as Graun’s operatic work, but careful listening to the Passion reveals a wealth of interesting details, especially in the orchestrations. The textures are very clean and transparent and occasionally command more of the listener’s attention than do the vocal lines. One number (CD 1, track 22, Choral: “Die Lust des Fleisches dämpf in mir”) sounds like a distant cousin to the familiar Doxology, Praise God from whom all blessings flow . Instead of the virtuoso showpieces found in Graun’s operas, the Grosse Passion is very reflective and subdued.
Conductor Hermann Max and his musical forces deliver a sincere and beautifully sung and played performance. The soloists have attractive voices and pay devout attention to the musical details. If you like this musical genre, you’re likely to find this a lovely recording, performed with sensitivity and expression.
(David L. Kirk)

Performer:
Veronika Winter, soprano
Hilke Andersen, mezzo-soprano
Markus Schäfer, tenor
Ekkerhard Abele, bass
Rheinische Kantorei
Das Kleine Konzert
Conductor - Hermann Max

Track List:
CD1:
01. Choral: Kommt her und schaut
02. Coro: Lasset uns aufsehen auf Jesum
03. Aria: Ich suche bebend meine Liebe (A)
04. Arioso: Siehe, ich komme (B)
05. Accompagnato: Wer ist der, so van Edom kommt (T,B)
06. Aria: Wer will den bangen Zustand enden (T)
07. Arioso: Mein Knecht, der Gerechte (B)
08. Recitativo: Mein Gott, so trägt ain Knecht (S)
09. Aria: Wer meinen strengen Schuldbrief schließet (S)
10. Quartetto: Siehe, das ist Gottes Lamm (S,A,T,B)
11. Aria: Mit nassen, doch vergnugten Augen (S)
12. Arioso: Also ists geschrieben (T)
13. Recitativo: Ach ja, mein Heiland muß (A)
14. Mein Gott, dein unerschöpftes Lieben (A)
15. Arioso: Sehet, wir gehen hinauf gen Jerusalem (B)
16. Accompagnato: Ihr Seufzende, ihr Schüchterne der Erden (A)
17. Recitativo: Und die Hohepriester und Schriftgelehrten suchten (T)
18. Aria: Ihr Junger Jesu, Iernt die Tücke (B)
19. Recitativo: Und Judas Ischarioth, einer von den Zwölfen (T)
20. Recitativo: Ein schnöder Trieb nimmt Jesu Jünger ein (S)
21. Aria: Ein Geist, in dem der Geldkeiz keimet (A)
22. Choral: Die Lust des Fleisches dämpf in mir
23. Recitativo: Da sie das horten, wurden sie froh (T)
24. Recitativo: Man sinnt auf Jesu Fall und Tod (T)
25. Duetto: Das ist mein Leib, das ist mein Blut (B,S)
26. Aria: Bedrangte Seele, laß dein Weinen (S)
27. Recitativo: Nun ist mir Jesus stets zur Seiten (A,T)
28. Duetto: Main armer Geist gibt sich gefangen (A,T)
29. Coro: Christus ist durch sein eigen Blut einmal in das Heilige eingegengen
30. Recitativo: O Ewigkeit, unaufgelöstes Wort (T)
31. Choral: O Wunder ohne Maßen
32. Recitativo: Und da sie den Lobgesang gesprochen hatten (T)
33. Aria: Bis in den Tod ist Jesus Geist betrübet (T)
34. Accompagnato: Was muss ich hier erblicken (S)
35. Aria: Brecht, ihr felsengleiche Herzen (S)
36. Choral: Lass deiner Seelen Höllen Qual
CD2:
01. Recitativo: Es war aber sein Schweiß wie Blutstropfen (T)
02. Aria: Tauet, purpurfarbne Tropfen (T)
03. Recitativo: Und Judas, der Zwölfen einer (T)
04. Recitativo: Mit Schwertern und mit Stangen (S)
05. Aria: Meine Schulden sind die Bande (S)
06. Recitativo: Aber die Jesum gegriffen hatten (T)
07. Recitativo: Brecht nur, entmenschte Richter (A)
08. Choral: Ich danke dir, der du dich lassen hast verklagen
09. Recitativo: Da speiten sie ihm ins Angesicht (T)
10. Aria: Wenn mich Neid und Bosheit drucken (A)
11. Recitativo: Sie bunden ihn, führten ihn hin (T)
12. Accompagnato: Ach! Wie erbarmlich sieht mein Heiland aus (S)
13. Aria: Dornen tragen keine Trauben (S)
14. Recitativo: Und da sie ihn verspottet hatten (T)
15. Recitativo: O schönes Kreuz (T)
16. Aria: Durres Kreuz, an deinem Stamme (T)
17. Recitativo: Und sie kreuzigten Jesum an der Stätte (T)
18. Aria: Seele, schwing die Glaubensflügel (B)
19. Recitativo: Erkaufte Seele (B)
20. Choral: Ich will hier bei dir stehen
21. Recitativo: Aber der Ubelthäter einer (T)
22. Arioso: Noch heute, wenn die mude Seele entweichet (B)
23. Duetto: Jesu, wirst du zu mir sprechen (S,A)
24. Recitativo: Danach, als Jesus wußte (T)
25. Recitativo: Mein Heiland lechzt nach meiner Seele (T)
26. Accompagnato: Ach schattenreiche Vesperstunde (T)
27. Aria: Ich suchte bebend meine Liebe (T)
28. Accompagnato: Nun gute Nacht (S)
29. Choral: Nun, ich kann nicht viel geben
30. Coro: Durch das Blut, erlöste Seelen
31. Choral: Ich danke dir von Herzen


Exact Audio Copy V1.3 from 2. September 2016

EAC extraction logfile from 27. October 2017, 14:10

Hermann Max, Rheinische Katorei, Das Kleine Konzert / Graun - Grosse Passion CD1

Used drive : HL-DT-STDVDRAM GH24NS95 Adapter: 1 ID: 0

Read mode : Secure
Utilize accurate stream : Yes
Defeat audio cache : Yes
Make use of C2 pointers : No

Read offset correction : 6
Overread into Lead-In and Lead-Out : No
Fill up missing offset samples with silence : Yes
Delete leading and trailing silent blocks : No
Null samples used in CRC calculations : Yes
Used interface : Native Win32 interface for Win NT & 2000

Used output format : User Defined Encoder
Selected bitrate : 128 kBit/s
Quality : High
Add ID3 tag : No
Command line compressor : C:\Program Files\Exact Audio Copy\Flac\flac.exe
Additional command line options : -V -8 -T "Date=%year%" -T "Genre=%genre%" %source%


TOC of the extracted CD

Track | Start | Length | Start sector | End sector
––––––––––––––––––––––––––––-
1 | 0:00.00 | 0:43.68 | 0 | 3292
2 | 0:43.68 | 3:09.74 | 3293 | 17541
3 | 3:53.67 | 2:34.48 | 17542 | 29139
4 | 6:28.40 | 1:29.38 | 29140 | 35852
5 | 7:58.03 | 2:26.56 | 35853 | 46858
6 | 10:24.59 | 2:42.38 | 46859 | 59046
7 | 13:07.22 | 1:32.05 | 59047 | 65951
8 | 14:39.27 | 0:25.68 | 65952 | 67894
9 | 15:05.20 | 3:56.18 | 67895 | 85612
10 | 19:01.38 | 2:18.54 | 85613 | 96016
11 | 21:20.17 | 4:06.06 | 96017 | 114472
12 | 25:26.23 | 1:24.74 | 114473 | 120846
13 | 26:51.22 | 0:56.32 | 120847 | 125078
14 | 27:47.54 | 2:43.44 | 125079 | 137347
15 | 30:31.23 | 1:35.30 | 137348 | 144502
16 | 32:06.53 | 2:07.22 | 144503 | 154049
17 | 34:14.00 | 0:14.25 | 154050 | 155124
18 | 34:28.25 | 3:02.01 | 155125 | 168775
19 | 37:30.26 | 0:15.26 | 168776 | 169926
20 | 37:45.52 | 1:15.04 | 169927 | 175555
21 | 39:00.56 | 3:15.46 | 175556 | 190226
22 | 42:16.27 | 1:06.47 | 190227 | 195223
23 | 43:22.74 | 0:19.27 | 195224 | 196675
24 | 43:42.26 | 1:08.07 | 196676 | 201782
25 | 44:50.33 | 1:32.65 | 201783 | 208747
26 | 46:23.23 | 4:54.57 | 208748 | 230854
27 | 51:18.05 | 0:51.36 | 230855 | 234715
28 | 52:09.41 | 4:16.60 | 234716 | 253975
29 | 56:26.26 | 3:16.44 | 253976 | 268719
30 | 59:42.70 | 1:47.46 | 268720 | 276790
31 | 61:30.41 | 1:07.20 | 276791 | 281835
32 | 62:37.61 | 0:50.45 | 281836 | 285630
33 | 63:28.31 | 2:09.50 | 285631 | 295355
34 | 65:38.06 | 2:28.32 | 295356 | 306487
35 | 68:06.38 | 3:22.38 | 306488 | 321675
36 | 71:29.01 | 1:00.67 | 321676 | 326242


Range status and errors

Selected range

Filename C:\Program Files\Exact Audio Copy\Flac\Graun - Grosse Passion CD1.wav

Peak level 100.0 %
Extraction speed 8.2 X
Range quality 100.0 %
Test CRC C6BFCB00
Copy CRC C6BFCB00
Copy OK

No errors occurred

End of status report

==== Log checksum 596CFFAFDA9E6F61320EB4F5ECB96523077598872B54710073EED8B3FA11BF62 ====


Exact Audio Copy V1.3 from 2. September 2016

EAC extraction logfile from 27. October 2017, 14:29

Hermann Max, Rheinische Katorei, Das Kleine Konzert / Graun - Grosse Passion CD2

Used drive : HL-DT-STDVDRAM GH24NS95 Adapter: 1 ID: 0

Read mode : Secure
Utilize accurate stream : Yes
Defeat audio cache : Yes
Make use of C2 pointers : No

Read offset correction : 6
Overread into Lead-In and Lead-Out : No
Fill up missing offset samples with silence : Yes
Delete leading and trailing silent blocks : No
Null samples used in CRC calculations : Yes
Used interface : Native Win32 interface for Win NT & 2000

Used output format : User Defined Encoder
Selected bitrate : 128 kBit/s
Quality : High
Add ID3 tag : No
Command line compressor : C:\Program Files\Exact Audio Copy\Flac\flac.exe
Additional command line options : -V -8 -T "Date=%year%" -T "Genre=%genre%" %source%


TOC of the extracted CD

Track | Start | Length | Start sector | End sector
––––––––––––––––––––––––––––-
1 | 0:00.00 | 0:16.13 | 0 | 1212
2 | 0:16.13 | 5:06.36 | 1213 | 24198
3 | 5:22.49 | 0:29.30 | 24199 | 26403
4 | 5:52.04 | 1:48.23 | 26404 | 34526
5 | 7:40.27 | 2:42.38 | 34527 | 46714
6 | 10:22.65 | 0:26.47 | 46715 | 48711
7 | 10:49.37 | 1:19.50 | 48712 | 54686
8 | 12:09.12 | 0:53.00 | 54687 | 58661
9 | 13:02.12 | 0:09.33 | 58662 | 59369
10 | 13:11.45 | 3:34.64 | 59370 | 75483
11 | 16:46.34 | 0:36.53 | 75484 | 78236
12 | 17:23.12 | 1:45.45 | 78237 | 86156
13 | 19:08.57 | 3:36.01 | 86157 | 102357
14 | 22:44.58 | 0:24.34 | 102358 | 104191
15 | 23:09.17 | 0:49.53 | 104192 | 107919
16 | 23:58.70 | 2:51.47 | 107920 | 120791
17 | 26:50.42 | 0:14.10 | 120792 | 121851
18 | 27:04.52 | 2:41.61 | 121852 | 133987
19 | 29:46.38 | 1:06.32 | 133988 | 138969
20 | 30:52.70 | 1:02.51 | 138970 | 143670
21 | 31:55.46 | 0:42.32 | 143671 | 146852
22 | 32:38.03 | 0:32.42 | 146853 | 149294
23 | 33:10.45 | 2:52.46 | 149295 | 162240
24 | 36:03.16 | 1:06.60 | 162241 | 167250
25 | 37:10.01 | 0:34.39 | 167251 | 169839
26 | 37:44.40 | 1:08.31 | 169840 | 174970
27 | 38:52.71 | 2:39.45 | 174971 | 186940
28 | 41:32.41 | 1:38.22 | 186941 | 194312
29 | 43:10.63 | 1:39.67 | 194313 | 201804
30 | 44:50.55 | 1:38.64 | 201805 | 209218
31 | 46:29.44 | 3:12.34 | 209219 | 223652


Range status and errors

Selected range

Filename C:\Program Files\Exact Audio Copy\Flac\Graun - Grosse Passion CD2.wav

Peak level 98.8 %
Extraction speed 7.0 X
Range quality 99.9 %
Test CRC 615F7B91
Copy CRC 615F7B91
Copy OK

No errors occurred

End of status report

==== Log checksum 58930480434242E6B7142CA426CDDA095720FA62DF263B4D1E8240D159B47AFB ====

Hermann Max, Das Kleine Konzert, Rheinische Kantorei - Carl Heinrich Graun: Grosse Passion (2009)