Tags
Language
Tags

Hole In The Wall - Hole In The Wall (1972) [Reissue 1994] (Re-up)

Posted By: gribovar
Hole In The Wall - Hole In The Wall (1972) [Reissue 1994] (Re-up)

Hole In The Wall - Hole In The Wall (1972) [Reissue 1994]
EAC Rip | FLAC (tracks+.cue+log) - 262 MB | MP3 CBR 320 kbps (LAME 3.93) - 94 MB | Covers - 9 MB
Genre: Progressive Folk Rock | RAR 3% Rec. | Label: Pan Records (PACD 014)

The debut album of a folk-rock band from Bergen, formed in 1971. The name of the group has to do with a gang of criminals from the American Wild West. “Hole-in-the-Wall” - the so-called mountain pass in the county of Johnson (Wyoming), where the criminals had their own shelter. The band’s music is an interesting blend of American country, folk, rock’n’roll and psychedelia. Folk component is emphasized by active use of acoustics and typical violin passages, but at the same time in many tracks there are various keyboards and blues guitar. The frontman of the band Rune Walle later became a member of Ozark Mountain Daredevils, and also played with The Flying Norwegians. In 1978, with a new composition, the band recorded the second album “Rose Of Barcelona”.
Tracklist:
01. Restless Man
02. The Letdown
03. Lookout Mountain
04. End Of The Effort
05. Big Nancy
06. Come On Over
07. Four Tomorrows
08. Pass The Word
09. Kilimanjaro Monday
10. Love Is Arranging My Life
11. Double Or Nothing

Total time: 39:47

Exact Audio Copy V0.99 prebeta 4 from 23. January 2008

EAC extraction logfile from 12. October 2009, 15:28

Hole In The Wall / Hole In The Wall

Used drive : ASUS DRW-2014S1 Adapter: 1 ID: 0

Read mode : Secure
Utilize accurate stream : Yes
Defeat audio cache : Yes
Make use of C2 pointers : No

Read offset correction : 6
Overread into Lead-In and Lead-Out : No
Fill up missing offset samples with silence : Yes
Delete leading and trailing silent blocks : No
Null samples used in CRC calculations : Yes
Used interface : Installed external ASPI interface
Gap handling : Appended to previous track

Used output format : User Defined Encoder
Selected bitrate : 768 kBit/s
Quality : High
Add ID3 tag : No
Command line compressor : C:\Program Files\Exact Audio Copy\FLAC\FLAC.EXE
Additional command line options : -6 -V -T "ARTIST=%a" -T "TITLE=%t" -T "ALBUM=%g" -T "DATE=%y" -T "TRACKNUMBER=%n" -T "GENRE=%m" -T "COMMENT=%e" %s -o %d


TOC of the extracted CD

Track | Start | Length | Start sector | End sector
––––––––––––––––––––––––––––-
1 | 0:00.00 | 2:58.62 | 0 | 13411
2 | 2:58.62 | 3:13.40 | 13412 | 27926
3 | 6:12.27 | 4:37.10 | 27927 | 48711
4 | 10:49.37 | 2:45.20 | 48712 | 61106
5 | 13:34.57 | 2:35.35 | 61107 | 72766
6 | 16:10.17 | 2:44.38 | 72767 | 85104
7 | 18:54.55 | 4:28.17 | 85105 | 105221
8 | 23:22.72 | 4:07.65 | 105222 | 123811
9 | 27:30.62 | 3:13.58 | 123812 | 138344
10 | 30:44.45 | 2:27.15 | 138345 | 149384
11 | 33:11.60 | 6:35.15 | 149385 | 179024


Track 1

Filename C:\byPr0gger\Hole In The Wall - st (1972, Sonet - 1994, Pan Records)[FLAC]\01. Restless Man.wav

Pre-gap length 0:00:02.00

Peak level 97.7 %
Track quality 100.0 %
Test CRC 585E8E89
Copy CRC 585E8E89
Accurately ripped (confidence 3) [9BF27EED]
Copy OK

Track 2

Filename C:\byPr0gger\Hole In The Wall - st (1972, Sonet - 1994, Pan Records)[FLAC]\02. The Letdown.wav

Pre-gap length 0:00:02.29

Peak level 94.9 %
Track quality 100.0 %
Test CRC 196546F1
Copy CRC 196546F1
Accurately ripped (confidence 3) [947FEB02]
Copy OK

Track 3

Filename C:\byPr0gger\Hole In The Wall - st (1972, Sonet - 1994, Pan Records)[FLAC]\03. Lookout Mountain.wav

Pre-gap length 0:00:03.46

Peak level 97.6 %
Track quality 100.0 %
Test CRC E1560499
Copy CRC E1560499
Accurately ripped (confidence 3) [BF7327B8]
Copy OK

Track 4

Filename C:\byPr0gger\Hole In The Wall - st (1972, Sonet - 1994, Pan Records)[FLAC]\04. End Of The Effort.wav

Pre-gap length 0:00:02.26

Peak level 89.9 %
Track quality 100.0 %
Test CRC 4755771F
Copy CRC 4755771F
Accurately ripped (confidence 3) [FBD1367A]
Copy OK

Track 5

Filename C:\byPr0gger\Hole In The Wall - st (1972, Sonet - 1994, Pan Records)[FLAC]\05. Big Nancy.wav

Pre-gap length 0:00:02.93

Peak level 90.8 %
Track quality 100.0 %
Test CRC EC4A8B14
Copy CRC EC4A8B14
Accurately ripped (confidence 3) [00D61009]
Copy OK

Track 6

Filename C:\byPr0gger\Hole In The Wall - st (1972, Sonet - 1994, Pan Records)[FLAC]\06. Come On Over.wav

Pre-gap length 0:00:02.33

Peak level 91.9 %
Track quality 100.0 %
Test CRC 4ABFA99E
Copy CRC 4ABFA99E
Accurately ripped (confidence 3) [64F95B07]
Copy OK

Track 7

Filename C:\byPr0gger\Hole In The Wall - st (1972, Sonet - 1994, Pan Records)[FLAC]\07. Four Tomorrow.wav

Pre-gap length 0:00:02.50

Peak level 96.6 %
Track quality 100.0 %
Test CRC A5CB408E
Copy CRC A5CB408E
Accurately ripped (confidence 3) [211FA1FF]
Copy OK

Track 8

Filename C:\byPr0gger\Hole In The Wall - st (1972, Sonet - 1994, Pan Records)[FLAC]\08. Pass The Word.wav

Pre-gap length 0:00:02.26

Peak level 84.7 %
Track quality 100.0 %
Test CRC AE7050F1
Copy CRC AE7050F1
Accurately ripped (confidence 3) [1347B98F]
Copy OK

Track 9

Filename C:\byPr0gger\Hole In The Wall - st (1972, Sonet - 1994, Pan Records)[FLAC]\09. Kilimanjaro Monday.wav

Pre-gap length 0:00:02.86

Peak level 87.9 %
Track quality 100.0 %
Test CRC 1982FAA6
Copy CRC 1982FAA6
Accurately ripped (confidence 3) [1E97D5AF]
Copy OK

Track 10

Filename C:\byPr0gger\Hole In The Wall - st (1972, Sonet - 1994, Pan Records)[FLAC]\10. Love Is Arranging My Life.wav

Pre-gap length 0:00:03.26

Peak level 94.0 %
Track quality 100.0 %
Test CRC C94F501A
Copy CRC C94F501A
Accurately ripped (confidence 3) [45F5EE04]
Copy OK

Track 11

Filename C:\byPr0gger\Hole In The Wall - st (1972, Sonet - 1994, Pan Records)[FLAC]\11. Double Or Nothing.wav

Pre-gap length 0:00:02.84

Peak level 85.7 %
Track quality 100.0 %
Test CRC 5CBC79BC
Copy CRC 5CBC79BC
Accurately ripped (confidence 3) [C2F2CC23]
Copy OK


All tracks accurately ripped

No errors occurred

End of status report

[CUETools log; Date: 05.03.2022 19:49:50; Version: 2.1.4]
[CTDB TOCID: eO1rVwGu0doRbEdJvS4Kjsrtj00-] found.
Track | CTDB Status
1 | (8/8) Accurately ripped
2 | (8/8) Accurately ripped
3 | (8/8) Accurately ripped
4 | (8/8) Accurately ripped
5 | (8/8) Accurately ripped
6 | (8/8) Accurately ripped
7 | (8/8) Accurately ripped
8 | (8/8) Accurately ripped
9 | (8/8) Accurately ripped
10 | (8/8) Accurately ripped
11 | (8/8) Accurately ripped
[AccurateRip ID: 000f5513-0085e2fb-9109530b] found.
Track [ CRC | V2 ] Status
01 [9bf27eed|8adbc901] (4+4/8) Accurately ripped
02 [947feb02|4758017d] (4+4/8) Accurately ripped
03 [bf7327b8|7638ab35] (4+4/8) Accurately ripped
04 [fbd1367a|d3367850] (4+4/8) Accurately ripped
05 [00d61009|d8c12a3b] (4+4/8) Accurately ripped
06 [64f95b07|80cebb54] (4+4/8) Accurately ripped
07 [211fa1ff|ab00326b] (4+4/8) Accurately ripped
08 [1347b98f|21139602] (4+4/8) Accurately ripped
09 [1e97d5af|c9b3932f] (4+4/8) Accurately ripped
10 [45f5ee04|3bb98dd9] (4+4/8) Accurately ripped
11 [c2f2cc23|8ede1699] (4+5/9) Accurately ripped

Track Peak [ CRC32 ] [W/O NULL] [ LOG ]
– 97,7 [D7744E18] [B2B38140]
01 97,7 [585E8E89] [5966C5A4] CRC32
02 94,9 [196546F1] [3F30FA8B] CRC32
03 97,6 [E1560499] [19885FB8] CRC32
04 89,9 [4755771F] [065417F6] CRC32
05 90,8 [EC4A8B14] [D972158D] CRC32
06 91,9 [4ABFA99E] [157F4E6A] CRC32
07 96,6 [A5CB408E] [1B0747FA] CRC32
08 84,7 [AE7050F1] [877FCBBE] CRC32
09 87,9 [1982FAA6] [612B01F8] CRC32
10 94,0 [C94F501A] [DC572B3A] CRC32
11 85,7 [5CBC79BC] [4B12D0E4] CRC32

Thanks to pr0gger