Subcategories

Joaquim Homs - Chamber Music (Colas, Hechavarria, +Que2 Guitar Duo, Ensemble de Salamanca)

Posted By: tapaz9
Joaquim Homs - Chamber Music (Colas, Hechavarria, +Que2 Guitar Duo, Ensemble de Salamanca)

Joaquim Homs - Chamber Music (Colas, Hechavarria, +Que2 Guitar Duo, Ensemble de Salamanca)
Classical | EAC: FLAC+Cue+Log | 1 Cd, Covers + Booklet | 217 Mb
Label: Verso - Date: 2006

The composer Joaquim Homs Oller (1906-2003), from Barcelona, is surely one of the most important musical personalities of the second half of the twentieth century in Spain. The only disciple of Robert Gerhard, himself a pupil of Arnold Schoenberg, and pioneer in this country of the dodecaphonic system, Homs was also an industrial engineer, an untiring supporter of contemporary music and, above all, a prolific musician (with a catalogue of more than 250 scores), the feature of his work being an almost complete predominance of emotion and expressivity, often touched by versatility.
With its quality and beauty, the chamber music with guitar occupies an outstanding place in the artistic output of the Catalan composer. The nine works recorded here, all composed between 1959 and 1992, reveal the maestro’s creative evolution and the depth of his musical language which, in performances by the Salamanca Ensemble and the guitar duo + Que2, take on a new and fascinating dimension.
Tracks:

01. Entre dues linies (version for 2 guitars) - I. Allegretto [0:01:29.13]
02. II. Andantino [0:01:49.68]
03. III. Tempo di vals [0:01:06.62]
04. IV. Larguetto [0:00:49.13]
05. V. Andante [0:01:23.16]
06. VI. Vivace [0:00:34.19]
07. VII. Tempo di marcia [0:01:25.25]
08. Impromptu for 2 Guitars [0:04:09.39]
09. Geminis I [0:04:40.46]
10. 2 Moviments - No. 1. Moderato [0:02:58.34]
11. No. 2. Animato [0:02:11.14]
12. Nocturne for 2 Guitars and Percussion [0:06:11.63]
13. Impromptu for Guitar and Percussion [0:07:24.31]
14. Duet for Flute and Guitar [0:05:31.34]
15. Sagitari [0:07:02.20]
16. L'absencia [0:07:38.33]


Exact Audio Copy V1.0 beta 3 from 29. August 2011

EAC extraction logfile from 21. February 2013, 1:05

Joaquim Homs / Chamber Music (Colas, Hechavarria, +Que2 Guitar Duo, Ensemble de Salamanca)

Used drive : TSSTcorpCDDVDW SH-S223C Adapter: 2 ID: 1

Read mode : Secure
Utilize accurate stream : Yes
Defeat audio cache : Yes
Make use of C2 pointers : No

Read offset correction : 697
Overread into Lead-In and Lead-Out : No
Fill up missing offset samples with silence : Yes
Delete leading and trailing silent blocks : No
Null samples used in CRC calculations : Yes
Used interface : Native Win32 interface for Win NT & 2000

Used output format : User Defined Encoder
Selected bitrate : 896 kBit/s
Quality : High
Add ID3 tag : No
Command line compressor : C:\Program Files (x86)\Exact Audio Copy\FLAC\FLAC.EXE
Additional command line options : -V -0 -T "COMMENT=Ripped by Tapaz9" -T "artist=%artist%" -T "title=%title%" -T "album=%albumtitle%" -T "date=%year%" -T "tracknumber=%tracknr%" -T "genre=%genre%" %source%


TOC of the extracted CD

Track | Start | Length | Start sector | End sector
––––––––––––––––––––––––––––-
1 | 0:00.00 | 1:29.13 | 0 | 6687
2 | 1:29.13 | 1:49.68 | 6688 | 14930
3 | 3:19.06 | 1:06.62 | 14931 | 19942
4 | 4:25.68 | 0:49.13 | 19943 | 23630
5 | 5:15.06 | 1:23.16 | 23631 | 29871
6 | 6:38.22 | 0:34.19 | 29872 | 32440
7 | 7:12.41 | 1:25.25 | 32441 | 38840
8 | 8:37.66 | 4:09.39 | 38841 | 57554
9 | 12:47.30 | 4:40.46 | 57555 | 78600
10 | 17:28.01 | 2:58.34 | 78601 | 91984
11 | 20:26.35 | 2:11.14 | 91985 | 101823
12 | 22:37.49 | 6:11.63 | 101824 | 129711
13 | 28:49.37 | 7:24.31 | 129712 | 163042
14 | 36:13.68 | 5:31.34 | 163043 | 187901
15 | 41:45.27 | 7:02.20 | 187902 | 219571
16 | 48:47.47 | 7:38.33 | 219572 | 253954


Range status and errors

Selected range

Filename F:\Musique\Homs, Joaquim\Homs_ChamberMusic\Joaquim Homs - Chamber Music (Colas, Hechavarria, +Que2 Guitar Duo, Ensemble de Salamanca).wav

Peak level 97.2 %
Extraction speed 14.5 X
Range quality 99.9 %
Copy CRC 506B3491
Copy OK

No errors occurred

End of status report

==== Log checksum 26EA2DF4359BBB9862ADA10956CEA0719A844FBCE427F5DEC02A8796B20DC0E6 ====

No Mirrors and Torrent-uploads Please

See my classical digital download posts in the Vinyl & HR section or check out My Avax blog