Tags
Language
Tags

Jack DeJohnette, Larry Grenadier, John Medeski & John Scofield - Hudson (2017)

Posted By:
Jack DeJohnette, Larry Grenadier, John Medeski & John Scofield - Hudson (2017)

Jack DeJohnette, Larry Grenadier, John Medeski & John Scofield - Hudson
EAC Rip | FLAC (tracks)+cue, log, m3u, covers | 71:55 min | 435 MB
Label: Motéma – MTM0228 | Tracks: 11 | Rls.date: 2017
Jazz

Music giants Jack DeJohnette, Larry Grenadier, John Medeski, and John Scofield, join forces in the electrifying new jazz-meets-rock supergroup, Hudson. Inspired by the beauty and spirit of their home region, New York’s Hudson River Valley, these famed improvisers bring fresh dimensions to Woodstock associated classics by Bob Dylan, Joni Mitchell, Jimi Hendrix and The Band and as well as compelling original compositions. The music also celebrates NEA Jazzmaster Jack DeJonnette’s 75th birthday.

TRACKLIST
01. Hudson 10:55
02. El Swing 05:28
03. Lay Lady Lay 08:16
04. Woodstock 05:59
05. A Hard Rain's a-Gonna Fall 09:13
06. Wait Until Tomorrow 05:28
07. Song for World Forgiveness 08:35
08. Dirty Ground 03:58
09. Tony Then Jack 05:03
10. Up on Cripple Creek 05:35
11. Great Spirit Peace Chant 03:16

PERSONNEL
Jack DeJohnette - drums, Tom Tom, flute, vocals
Larry Grenadier - acoustic bass, vocals
John Medeski - piano, organ, flute, vocals
John Scofield - guitar, flute

Exact Audio Copy V1.1 from 23. June 2015

EAC extraction logfile from 16. July 2017, 17:57

DeJohnette, Grenadier, Medeski, Scofield / Hudson

Used drive : TSSTcorpCDDVDW SH-224DB Adapter: 1 ID: 0

Read mode : Secure
Utilize accurate stream : Yes
Defeat audio cache : Yes
Make use of C2 pointers : No

Read offset correction : 6
Overread into Lead-In and Lead-Out : No
Fill up missing offset samples with silence : Yes
Delete leading and trailing silent blocks : No
Null samples used in CRC calculations : Yes
Used interface : Native Win32 interface for Win NT & 2000
Gap handling : Appended to previous track

Used output format : User Defined Encoder
Selected bitrate : 1024 kBit/s
Quality : High
Add ID3 tag : No
Command line compressor : C:\Program Files (x86)\Exact Audio Copy\win64\flac.exe
Additional command line options : -8 -V -T "ARTIST=%artist%" -T "TITLE=%title%" -T "ALBUM=%albumtitle%" -T "DATE=%year%" -T "TRACKNUMBER=%tracknr%" -T "GENRE=%genre%" -T "COMMENT=%comment%" %source% -o %dest%


TOC of the extracted CD

Track | Start | Length | Start sector | End sector
––––––––––––––––––––––––––––-
1 | 0:00.00 | 10:57.34 | 0 | 49308
2 | 10:57.34 | 5:30.54 | 49309 | 74112
3 | 16:28.13 | 8:16.69 | 74113 | 111381
4 | 24:45.07 | 6:00.71 | 111382 | 138452
5 | 30:46.03 | 9:14.64 | 138453 | 180066
6 | 40:00.67 | 5:29.00 | 180067 | 204741
7 | 45:29.67 | 8:36.22 | 204742 | 243463
8 | 54:06.14 | 3:58.31 | 243464 | 261344
9 | 58:04.45 | 5:04.11 | 261345 | 284155
10 | 63:08.56 | 5:36.64 | 284156 | 309419
11 | 68:45.45 | 3:15.46 | 309420 | 324090


Track 1

Filename F:\Sket4er\DeJohnette, Grenadier, Medeski, Scofield – Hudson 2017\01 Hudson.wav

Pre-gap length 0:00:02.00

Peak level 100.0 %
Extraction speed 2.3 X
Track quality 100.0 %
Test CRC 9E8EF886
Copy CRC 9E8EF886
Cannot be verified as accurate (confidence 7) [4BC175B1], AccurateRip returned [CF88F954] (AR v2)
Copy OK

Track 2

Filename F:\Sket4er\DeJohnette, Grenadier, Medeski, Scofield – Hudson 2017\02 El Swing.wav

Peak level 100.0 %
Extraction speed 2.5 X
Track quality 100.0 %
Test CRC 73E49745
Copy CRC 73E49745
Cannot be verified as accurate (confidence 7) [DDD7C5FE], AccurateRip returned [E99FDD4D] (AR v2)
Copy OK

Track 3

Filename F:\Sket4er\DeJohnette, Grenadier, Medeski, Scofield – Hudson 2017\03 Lay Lady Lay.wav

Peak level 100.0 %
Extraction speed 2.9 X
Track quality 100.0 %
Test CRC 80162C0B
Copy CRC 80162C0B
Cannot be verified as accurate (confidence 7) [6A1AD188], AccurateRip returned [D3A3A969] (AR v2)
Copy OK

Track 4

Filename F:\Sket4er\DeJohnette, Grenadier, Medeski, Scofield – Hudson 2017\04 Woodstock.wav

Peak level 100.0 %
Extraction speed 3.0 X
Track quality 100.0 %
Test CRC D499E53F
Copy CRC D499E53F
Cannot be verified as accurate (confidence 7) [E33BD7BA], AccurateRip returned [337077CD] (AR v2)
Copy OK

Track 5

Filename F:\Sket4er\DeJohnette, Grenadier, Medeski, Scofield – Hudson 2017\05 A Hard Rain's A-Gonna Fall.wav

Peak level 100.0 %
Extraction speed 3.4 X
Track quality 100.0 %
Test CRC 47548CCE
Copy CRC 47548CCE
Cannot be verified as accurate (confidence 7) [F622EE05], AccurateRip returned [C57DF047] (AR v2)
Copy OK

Track 6

Filename F:\Sket4er\DeJohnette, Grenadier, Medeski, Scofield – Hudson 2017\06 Wait Until Tomorrow.wav

Peak level 100.0 %
Extraction speed 2.9 X
Track quality 99.9 %
Test CRC F3A98963
Copy CRC F3A98963
Cannot be verified as accurate (confidence 7) [DC6B7971], AccurateRip returned [A578492E] (AR v2)
Copy OK

Track 7

Filename F:\Sket4er\DeJohnette, Grenadier, Medeski, Scofield – Hudson 2017\07 Song For World Forgiveness.wav

Peak level 100.0 %
Extraction speed 3.7 X
Track quality 100.0 %
Test CRC 36363D29
Copy CRC 36363D29
Cannot be verified as accurate (confidence 7) [83534D93], AccurateRip returned [F7B4D2A1] (AR v2)
Copy OK

Track 8

Filename F:\Sket4er\DeJohnette, Grenadier, Medeski, Scofield – Hudson 2017\08 Dirty Ground.wav

Peak level 100.0 %
Extraction speed 3.6 X
Track quality 100.0 %
Test CRC 2FA64A85
Copy CRC 2FA64A85
Cannot be verified as accurate (confidence 7) [C371E27B], AccurateRip returned [55491585] (AR v2)
Copy OK

Track 9

Filename F:\Sket4er\DeJohnette, Grenadier, Medeski, Scofield – Hudson 2017\09 Tony Then Jack.wav

Peak level 100.0 %
Extraction speed 3.8 X
Track quality 100.0 %
Test CRC E64B75FC
Copy CRC E64B75FC
Cannot be verified as accurate (confidence 7) [9AAB897E], AccurateRip returned [1BE43E7F] (AR v2)
Copy OK

Track 10

Filename F:\Sket4er\DeJohnette, Grenadier, Medeski, Scofield – Hudson 2017\10 Up On Cripple Creek.wav

Peak level 100.0 %
Extraction speed 4.0 X
Track quality 100.0 %
Test CRC 15350091
Copy CRC 15350091
Cannot be verified as accurate (confidence 7) [D11B8E16], AccurateRip returned [14CD392E] (AR v2)
Copy OK

Track 11

Filename F:\Sket4er\DeJohnette, Grenadier, Medeski, Scofield – Hudson 2017\11 Great Spirit Peace Chant.wav

Peak level 100.0 %
Extraction speed 3.8 X
Track quality 100.0 %
Test CRC 93DEBC65
Copy CRC 93DEBC65
Cannot be verified as accurate (confidence 7) [01B48FAD], AccurateRip returned [317A7375] (AR v2)
Copy OK


No tracks could be verified as accurate
You may have a different pressing from the one(s) in the database

No errors occurred

End of status report

–– CUETools DB Plugin V2.1.6

[CTDB TOCID: SkZNYo0r3XEng6z.yMOkKOJfux4-] found
Submit result: SkZNYo0r3XEng6z.yMOkKOJfux4- has been submitted
Track | CTDB Status
1 | (28/28) Accurately ripped
2 | (28/28) Accurately ripped
3 | (28/28) Accurately ripped
4 | (28/28) Accurately ripped
5 | (28/28) Accurately ripped
6 | (28/28) Accurately ripped
7 | (28/28) Accurately ripped
8 | (28/28) Accurately ripped
9 | (28/28) Accurately ripped
10 | (28/28) Accurately ripped
11 | (28/28) Differs in 1583 samples @03:01:68,03:03:53,03:04:46,03:04:69,03:05:16-03:05:17,03:05:61,03:06:09,03:06:54-03:06:55,03:07:24-03:07:25,03:07:47,03:07:69,03:08:17-03:08:18,03:08:40,03:08:63,03:09:32-03:09:33,03:09:54-03:09:56,03:10:02-03:10:03,03:10:25-03:10:26,03:10:48,03:10:70-03:10:71,03:11:17-03:11:18,03:11:40-03:11:41,03:11:63-03:11:64,03:12:10-03:12:11,03:12:33-03:12:34,03:12:55-03:12:56
If you are sure that your rip contains errors, you can use CUETools to repair it.


==== Log checksum AF8910F304574B7ACAEE00A6B18E97F98B4E5DCD4ED476D92C253A7D3405ECB2 ====


Jack DeJohnette, Larry Grenadier, John Medeski & John Scofield - Hudson (2017)


Thanks to the Original customer.